專注4K家庭影音, 服務千萬家庭影音發燒友!

在線
客服

QQ咨詢服務時間: 9:00-21:00

選擇下列客服馬上在線溝通:

快速
發帖

暫無
7*24小時客服服務熱線

關注
微信

頂部

歐洲歌唱大賽:火焰傳說4k Eurovision.Song.Contest.The.Story.of.Fire.Saga.2020.2160p.NF.WEBRip.x265.10bit.SDR.DDP5.1.x265電影下載

72943 38
老頑童 發表于 6 天前 | 只看該作者
電影頻道
電影封面:
片  名: 歐洲歌唱大賽:火焰傳說4k
電影分類: 喜劇   其他   
國  家: 美國   
年  代: 2020  
分 辨 率: 4K(3840x2160)    
電影格式: MKV|REMUX   
畫質標準: SDR 
音質編碼: Dolby Digital Plus Audio    
電影聲道: 其他 
電影語言: 英文原版     
資源大小: 23.02 GB
導  演: 大衛·道金
豆瓣評分: 6.6 分
中文字幕: -
劇情簡介: 雄心壯志的冰島音樂人拉斯和席格芮得到千載難逢的機會,代表國家參加全球最盛大的歌唱比賽。他們終于有機會證明:值得做的夢,就值得勇敢去追。
歐洲歌唱大賽:火焰傳說4k Eurovision.Song.Contest.The.Story.of.Fire.Saga.2020.2160p.NF.WEBRip.x265.10bit.SDR.DDP5.1.x265電影信息
  1. Video
  2. ID : 1
  3. Format : HEVC
  4. Format/Info : High Efficiency Video Coding
  5. Format profile : Main 10@L5.1@High
  6. Codec ID : V_MPEGH/ISO/HEVC
  7. Duration : 2 h 3 min
  8. Bit rate : 26.0 Mb/s
  9. Width : 3 840 pixels
  10. Height : 2 076 pixels
  11. Display aspect ratio : 1.85:1
  12. Frame rate mode : Constant
  13. Frame rate : 24.000 FPS
  14. Color space : YUV
  15. Chroma subsampling : 4:2:0
  16. Bit depth : 10 bits
  17. Bits/(Pixel*Frame) : 0.136
  18. Stream size : 22.5 GiB (98%)
  19. Writing library : x265 3.3+10-g08d895bb6:[Windows][GCC 10.0.1][64 bit] 10bit
  20. Encoding settings : cpuid=1111039 / frame-threads=4 / numa-pools=24 / wpp / no-pmode / no-pme / no-psnr / no-ssim / log-level=2 / input-csp=1 / input-res=3840x2076 / interlace=0 / total-frames=177957 / level-idc=51 / high-tier=1 / uhd-bd=0 / ref=5 / no-allow-non-conformance / repeat-headers / annexb / aud / hrd / info / hash=0 / no-temporal-layers / open-gop / min-keyint=24 / keyint=250 / gop-lookahead=0 / bframes=8 / b-adapt=2 / b-pyramid / bframe-bias=0 / rc-lookahead=40 / lookahead-slices=8 / scenecut=40 / hist-scenecut=0 / radl=0 / no-splice / no-intra-refresh / ctu=64 / min-cu-size=8 / no-rect / no-amp / max-tu-size=32 / tu-inter-depth=4 / tu-intra-depth=4 / limit-tu=4 / rdoq-level=0 / dynamic-rd=0.00 / no-ssim-rd / signhide / no-tskip / nr-intra=0 / nr-inter=0 / no-constrained-intra / strong-intra-smoothing / max-merge=4 / limit-refs=1 / no-limit-modes / me=1 / subme=5 / merange=57 / temporal-mvp / no-frame-dup / no-hme / weightp / weightb / no-analyze-src-pics / deblock=-3:-3 / no-sao / no-sao-non-deblock / rd=4 / selective-sao=0 / early-skip / rskip / no-fast-intra / no-tskip-fast / no-cu-lossless / b-intra / no-splitrd-skip / rdpenalty=0 / psy-rd=2.00 / psy-rdoq=0.00 / no-rd-refine / no-lossless / cbqpoffs=0 / crqpoffs=0 / rc=crf / crf=19.0 / qcomp=0.60 / qpstep=4 / stats-write=0 / stats-read=0 / vbv-maxrate=160000 / vbv-bufsize=160000 / vbv-init=0.9 / crf-max=0.0 / crf-min=0.0 / ipratio=1.30 / pbratio=1.20 / aq-mode=1 / aq-strength=0.85 / no-cutree / zone-count=0 / no-strict-cbr / qg-size=32 / no-rc-grain / qpmax=69 / qpmin=0 / no-const-vbv / sar=1 / overscan=0 / videoformat=5 / range=0 / colorprim=1 / transfer=1 / colormatrix=1 / chromaloc=0 / display-window=0 / cll=0,0 / min-luma=0 / max-luma=1023 / log2-max-poc-lsb=8 / vui-timing-info / vui-hrd-info / slices=1 / no-opt-qp-pps / no-opt-ref-list-length-pps / no-multi-pass-opt-rps / scenecut-bias=0.05 / hist-threshold=0.01 / no-opt-cu-delta-qp / no-aq-motion / no-hdr10 / no-hdr10-opt / no-dhdr10-opt / no-idr-recovery-sei / analysis-reuse-level=0 / analysis-save-reuse-level=0 / analysis-load-reuse-level=0 / scale-factor=0 / refine-intra=0 / refine-inter=0 / refine-mv=1 / refine-ctu-distortion=0 / no-limit-sao / ctu-info=0 / no-lowpass-dct / refine-analysis-type=0 / copy-pic=1 / max-ausize-factor=1.0 / no-dynamic-refine / no-single-sei / no-hevc-aq / no-svt / no-field / qp-adaptation-range=1.00 / no-scenecut-aware-qpconformance-window-offsets / right=0 / bottom=0 / decoder-max-rate=0
  21. Default : Yes
  22. Forced : No
  23. Color range : Limited
  24. Color primaries : BT.709
  25. Transfer characteristics : BT.709
  26. Matrix coefficients : BT.709

  27. Audio
  28. ID : 2
  29. Format : E-AC-3
  30. Format/Info : Enhanced AC-3
  31. Commercial name : Dolby Digital Plus
  32. Codec ID : A_EAC3
  33. Duration : 2 h 3 min
  34. Bit rate mode : Constant
  35. Bit rate : 640 kb/s
  36. Channel(s) : 6 channels
  37. Channel layout : L R C LFE Ls Rs
  38. Sampling rate : 48.0 kHz
  39. Frame rate : 31.250 FPS (1536 SPF)
  40. Compression mode : Lossy
  41. Stream size : 566 MiB (2%)
  42. Title : English
  43. Language : English
  44. Service kind : Complete Main
  45. Default : Yes
  46. Forced : No

  47. Text #1
  48. ID : 3
  49. Format : UTF-8
  50. Codec ID : S_TEXT/UTF8
  51. Codec ID/Info : UTF-8 Plain Text
  52. Duration : 1 min 10 s
  53. Bit rate : 30 b/s
  54. Count of elements : 10
  55. Stream size : 268 Bytes (0%)
  56. Title : Forced
  57. Language : English
  58. Default : Yes
  59. Forced : Yes

  60. Text #2
  61. ID : 4
  62. Format : UTF-8
  63. Codec ID : S_TEXT/UTF8
  64. Codec ID/Info : UTF-8 Plain Text
  65. Duration : 1 h 53 min
  66. Bit rate : 78 b/s
  67. Count of elements : 2039
  68. Stream size : 64.9 KiB (0%)
  69. Language : English
  70. Default : No
  71. Forced : No

  72. Text #3
  73. ID : 5
  74. Format : UTF-8
  75. Codec ID : S_TEXT/UTF8
  76. Codec ID/Info : UTF-8 Plain Text
  77. Duration : 1 h 59 min
  78. Bit rate : 81 b/s
  79. Count of elements : 2280
  80. Stream size : 71.7 KiB (0%)
  81. Title : SDH
  82. Language : English
  83. Default : No
  84. Forced : No

  85. Text #4
  86. ID : 6
  87. Format : UTF-8
  88. Codec ID : S_TEXT/UTF8
  89. Codec ID/Info : UTF-8 Plain Text
  90. Duration : 1 h 54 min
  91. Bit rate : 112 b/s
  92. Count of elements : 1851
  93. Stream size : 93.7 KiB (0%)
  94. Language : Arabic
  95. Default : No
  96. Forced : No

  97. Text #5
  98. ID : 7
  99. Format : UTF-8
  100. Codec ID : S_TEXT/UTF8
  101. Codec ID/Info : UTF-8 Plain Text
  102. Duration : 1 h 54 min
  103. Bit rate : 59 b/s
  104. Count of elements : 1844
  105. Stream size : 50.0 KiB (0%)
  106. Language : Czech
  107. Default : No
  108. Forced : No

  109. Text #6
  110. ID : 8
  111. Format : UTF-8
  112. Codec ID : S_TEXT/UTF8
  113. Codec ID/Info : UTF-8 Plain Text
  114. Duration : 1 h 54 min
  115. Bit rate : 59 b/s
  116. Count of elements : 1277
  117. Stream size : 49.6 KiB (0%)
  118. Language : Danish
  119. Default : No
  120. Forced : No

  121. Text #7
  122. ID : 9
  123. Format : UTF-8
  124. Codec ID : S_TEXT/UTF8
  125. Codec ID/Info : UTF-8 Plain Text
  126. Duration : 2 h 0 min
  127. Bit rate : 59 b/s
  128. Count of elements : 1799
  129. Stream size : 52.2 KiB (0%)
  130. Language : German
  131. Default : No
  132. Forced : No

  133. Text #8
  134. ID : 10
  135. Format : UTF-8
  136. Codec ID : S_TEXT/UTF8
  137. Codec ID/Info : UTF-8 Plain Text
  138. Duration : 2 h 0 min
  139. Bit rate : 98 b/s
  140. Count of elements : 1898
  141. Stream size : 87.2 KiB (0%)
  142. Language : Greek
  143. Default : No
  144. Forced : No

  145. Text #9
  146. ID : 11
  147. Format : UTF-8
  148. Codec ID : S_TEXT/UTF8
  149. Codec ID/Info : UTF-8 Plain Text
  150. Duration : 2 h 0 min
  151. Bit rate : 59 b/s
  152. Count of elements : 1866
  153. Stream size : 52.6 KiB (0%)
  154. Language : Spanish
  155. Default : No
  156. Forced : No

  157. Text #10
  158. ID : 12
  159. Format : UTF-8
  160. Codec ID : S_TEXT/UTF8
  161. Codec ID/Info : UTF-8 Plain Text
  162. Duration : 1 h 54 min
  163. Bit rate : 60 b/s
  164. Count of elements : 1840
  165. Stream size : 50.3 KiB (0%)
  166. Title : European
  167. Language : Spanish
  168. Default : No
  169. Forced : No

  170. Text #11
  171. ID : 13
  172. Format : UTF-8
  173. Codec ID : S_TEXT/UTF8
  174. Codec ID/Info : UTF-8 Plain Text
  175. Duration : 1 h 54 min
  176. Bit rate : 58 b/s
  177. Count of elements : 1495
  178. Stream size : 48.6 KiB (0%)
  179. Language : Finnish
  180. Default : No
  181. Forced : No

  182. Text #12
  183. ID : 14
  184. Format : UTF-8
  185. Codec ID : S_TEXT/UTF8
  186. Codec ID/Info : UTF-8 Plain Text
  187. Duration : 1 h 54 min
  188. Bit rate : 56 b/s
  189. Count of elements : 1634
  190. Stream size : 46.8 KiB (0%)
  191. Language : French
  192. Default : No
  193. Forced : No

  194. Text #13
  195. ID : 15
  196. Format : UTF-8
  197. Codec ID : S_TEXT/UTF8
  198. Codec ID/Info : UTF-8 Plain Text
  199. Duration : 1 h 54 min
  200. Bit rate : 98 b/s
  201. Count of elements : 1977
  202. Stream size : 82.0 KiB (0%)
  203. Language : Hebrew
  204. Default : No
  205. Forced : No

  206. Text #14
  207. ID : 16
  208. Format : UTF-8
  209. Codec ID : S_TEXT/UTF8
  210. Codec ID/Info : UTF-8 Plain Text
  211. Duration : 1 h 54 min
  212. Bit rate : 64 b/s
  213. Count of elements : 1792
  214. Stream size : 54.2 KiB (0%)
  215. Language : Hungarian
  216. Default : No
  217. Forced : No

  218. Text #15
  219. ID : 17
  220. Format : UTF-8
  221. Codec ID : S_TEXT/UTF8
  222. Codec ID/Info : UTF-8 Plain Text
  223. Duration : 1 h 54 min
  224. Bit rate : 64 b/s
  225. Count of elements : 1844
  226. Stream size : 54.0 KiB (0%)
  227. Language : Indonesian
  228. Default : No
  229. Forced : No

  230. Text #16
  231. ID : 18
  232. Format : UTF-8
  233. Codec ID : S_TEXT/UTF8
  234. Codec ID/Info : UTF-8 Plain Text
  235. Duration : 1 h 54 min
  236. Bit rate : 59 b/s
  237. Count of elements : 1834
  238. Stream size : 49.9 KiB (0%)
  239. Language : Italian
  240. Default : No
  241. Forced : No

  242. Text #17
  243. ID : 19
  244. Format : UTF-8
  245. Codec ID : S_TEXT/UTF8
  246. Codec ID/Info : UTF-8 Plain Text
  247. Duration : 1 h 54 min
  248. Bit rate : 63 b/s
  249. Count of elements : 1910
  250. Stream size : 52.9 KiB (0%)
  251. Language : Japanese
  252. Default : No
  253. Forced : No

  254. Text #18
  255. ID : 20
  256. Format : UTF-8
  257. Codec ID : S_TEXT/UTF8
  258. Codec ID/Info : UTF-8 Plain Text
  259. Duration : 1 h 54 min
  260. Bit rate : 80 b/s
  261. Count of elements : 1859
  262. Stream size : 67.4 KiB (0%)
  263. Language : Korean
  264. Default : No
  265. Forced : No

  266. Text #19
  267. ID : 21
  268. Format : UTF-8
  269. Codec ID : S_TEXT/UTF8
  270. Codec ID/Info : UTF-8 Plain Text
  271. Duration : 1 h 54 min
  272. Bit rate : 56 b/s
  273. Count of elements : 1548
  274. Stream size : 47.3 KiB (0%)
  275. Language : Norwegian Bokmal
  276. Default : No
  277. Forced : No

  278. Text #20
  279. ID : 22
  280. Format : UTF-8
  281. Codec ID : S_TEXT/UTF8
  282. Codec ID/Info : UTF-8 Plain Text
  283. Duration : 1 h 54 min
  284. Bit rate : 55 b/s
  285. Count of elements : 1445
  286. Stream size : 46.0 KiB (0%)
  287. Language : Dutch
  288. Default : No
  289. Forced : No

  290. Text #21
  291. ID : 23
  292. Format : UTF-8
  293. Codec ID : S_TEXT/UTF8
  294. Codec ID/Info : UTF-8 Plain Text
  295. Duration : 1 h 54 min
  296. Bit rate : 56 b/s
  297. Count of elements : 1836
  298. Stream size : 47.5 KiB (0%)
  299. Language : Polish
  300. Default : No
  301. Forced : No

  302. Text #22
  303. ID : 24
  304. Format : UTF-8
  305. Codec ID : S_TEXT/UTF8
  306. Codec ID/Info : UTF-8 Plain Text
  307. Duration : 1 h 54 min
  308. Bit rate : 61 b/s
  309. Count of elements : 1770
  310. Stream size : 51.7 KiB (0%)
  311. Language : Portuguese
  312. Default : No
  313. Forced : No

  314. Text #23
  315. ID : 25
  316. Format : UTF-8
  317. Codec ID : S_TEXT/UTF8
  318. Codec ID/Info : UTF-8 Plain Text
  319. Duration : 1 h 54 min
  320. Bit rate : 59 b/s
  321. Count of elements : 1828
  322. Stream size : 49.9 KiB (0%)
  323. Title : Brazilian
  324. Language : Portuguese
  325. Default : No
  326. Forced : No

  327. Text #24
  328. ID : 26
  329. Format : UTF-8
  330. Codec ID : S_TEXT/UTF8
  331. Codec ID/Info : UTF-8 Plain Text
  332. Duration : 1 h 54 min
  333. Bit rate : 66 b/s
  334. Count of elements : 1677
  335. Stream size : 55.9 KiB (0%)
  336. Language : Romanian
  337. Default : No
  338. Forced : No

  339. Text #25
  340. ID : 27
  341. Format : UTF-8
  342. Codec ID : S_TEXT/UTF8
  343. Codec ID/Info : UTF-8 Plain Text
  344. Duration : 1 h 54 min
  345. Bit rate : 99 b/s
  346. Count of elements : 1837
  347. Stream size : 82.9 KiB (0%)
  348. Language : Russian
  349. Default : No
  350. Forced : No

  351. Text #26
  352. ID : 28
  353. Format : UTF-8
  354. Codec ID : S_TEXT/UTF8
  355. Codec ID/Info : UTF-8 Plain Text
  356. Duration : 1 h 54 min
  357. Bit rate : 60 b/s
  358. Count of elements : 1424
  359. Stream size : 50.5 KiB (0%)
  360. Language : Swedish
  361. Default : No
  362. Forced : No

  363. Text #27
  364. ID : 29
  365. Format : UTF-8
  366. Codec ID : S_TEXT/UTF8
  367. Codec ID/Info : UTF-8 Plain Text
  368. Duration : 1 h 54 min
  369. Bit rate : 154 b/s
  370. Count of elements : 1847
  371. Stream size : 129 KiB (0%)
  372. Language : Thai
  373. Default : No
  374. Forced : No

  375. Text #28
  376. ID : 30
  377. Format : UTF-8
  378. Codec ID : S_TEXT/UTF8
  379. Codec ID/Info : UTF-8 Plain Text
  380. Duration : 1 h 54 min
  381. Bit rate : 63 b/s
  382. Count of elements : 1755
  383. Stream size : 53.4 KiB (0%)
  384. Language : Turkish
  385. Default : No
  386. Forced : No

  387. Text #29
  388. ID : 31
  389. Format : UTF-8
  390. Codec ID : S_TEXT/UTF8
  391. Codec ID/Info : UTF-8 Plain Text
  392. Duration : 1 h 54 min
  393. Bit rate : 87 b/s
  394. Count of elements : 1823
  395. Stream size : 73.5 KiB (0%)
  396. Language : Vietnamese
  397. Default : No
  398. Forced : No

  399. Text #30
  400. ID : 32
  401. Format : UTF-8
  402. Codec ID : S_TEXT/UTF8
  403. Codec ID/Info : UTF-8 Plain Text
  404. Duration : 1 h 54 min
  405. Bit rate : 68 b/s
  406. Count of elements : 1845
  407. Stream size : 57.6 KiB (0%)
  408. Title : Simplified
  409. Language : Chinese
  410. Default : No
  411. Forced : No

  412. Text #31
  413. ID : 33
  414. Format : UTF-8
  415. Codec ID : S_TEXT/UTF8
  416. Codec ID/Info : UTF-8 Plain Text
  417. Duration : 1 h 54 min
  418. Bit rate : 65 b/s
  419. Count of elements : 1859
  420. Stream size : 54.7 KiB (0%)
  421. Title : Traditional
  422. Language : Chinese
  423. Default : No
  424. Forced : No
復制代碼

歐洲歌唱大賽:火焰傳說4k Eurovision.Song.Contest.The.Story.of.Fire.Saga.2020.2160p.NF.WEBRip.x265.10bit.SDR.DDP5.1.x265電影下載

歐洲歌唱大賽:火焰傳說4k Eurovision.Song.Contest.The.Story.of.Fire.Saga.2020.2160p.NF.WEBRip.x265.10bit.SDR.DDP5.1.x265【4K  2160p 23.02 GB】
[Hao4k]歐洲歌唱大賽:火焰傳說4k Eurovision.Song.Contest.The.Story.of.Fire.Saga.2.torrent
(58.17 KB)
回復

使用道具 舉報

 

精彩評論38

倒序瀏覽
跳轉到指定樓層
 
 
36#
00B080 發表于 前天 22:57 | 只看該作者
感謝分享
回復 支持 反對

使用道具 舉報

 
 
 
33#
dk30129 發表于 3 天前 | 只看該作者

感謝樓主分享辛苦了!!!
回復 支持 反對

使用道具 舉報

 
 
31#
kkkkwoai 發表于 3 天前 來自手機 | 只看該作者
資源缺失,下不了!
回復 支持 反對

使用道具 舉報

 
30#
徐霞客 發表于 3 天前 | 只看該作者
謝謝分享!
回復 支持 反對

使用道具 舉報

 
 
28#
dk30129 發表于 4 天前 | 只看該作者
謝謝樓主分享資源,辛苦!!!
回復 支持 反對

使用道具 舉報

 
27#
mishen1976 發表于 4 天前 | 只看該作者
感謝樓主分享,免k幣謝謝了。
回復 支持 反對

使用道具 舉報

 
 
25#
zhq500 發表于 4 天前 | 只看該作者
挺好看的電影
回復 支持 反對

使用道具 舉報

 
24#
leo8228 發表于 4 天前 | 只看該作者
謝謝樓主發布分享!
回復 支持 反對

使用道具 舉報

 
 
22#
macroant 發表于 4 天前 | 只看該作者
謝謝樓主分享資源,辛苦
回復 支持 反對

使用道具 舉報

 
21#
長空利劍 發表于 5 天前 | 只看該作者
感謝樓主分享辛苦了
回復 支持 反對

使用道具 舉報

 
您需要登錄后才可以回帖 登錄 | 立即注冊

本版積分規則


0關注

54粉絲

47帖子

排行榜
社區廣告

關注微信公眾號第一時間推送精彩

官方微信

手機訪問

Hao4K影音

專注4k家庭影音,提供家庭影音社區,家庭影音器材庫,影音問答平臺,影音商城,服務千萬家庭影音用戶。

本站內容部分由用戶自主分享和轉載自互聯網,轉載目的在于傳遞更多信息,并不代表本網贊同其觀點和對其真實性負責。

超级快三邀请码如有侵權、違反國家法律政策行為,請聯系我們,我們會第一時間及時清除和處理!

超级快三邀请码舉報反饋郵箱:admin@hao4k.cn

Copyright  2019-2020  Hao4K影音     ( )|網站地圖