專注4K家庭影音, 服務千萬家庭影音發燒友!

在線
客服

QQ咨詢服務時間: 9:00-21:00

選擇下列客服馬上在線溝通:

快速
發帖

暫無
7*24小時客服服務熱線

關注
超级快三邀请码微信

頂部

非常男女4k Not.Another.Teen.Movie.2001.2160p.WEB.h265電影

38667 16
影音人 發表于 2020-5-21 09:52:57 | 只看該作者
電影頻道
電影封面:
片  名: 非常男女4k
電影分類: 喜劇   
國  家: 美國   
年  代: 00年代    
分 辨 率: 4K(3840x2160)    
電影格式: MKV|REMUX   
畫質標準: 其他 
音質編碼: Dolby Digital Plus Audio    
電影聲道: 其他 
電影語言: 英文原版     
資源大小: 9.54 GB
導  演: 喬爾·加蘭
豆瓣評分: 5.8 分
中文字幕: -
劇情簡介: 約翰•休斯學院有一群怪異的學生,奪走無數少女心的四分衛杰克(克里斯•埃文斯 Chris Evans 飾)因為不服從滿口痰的教練安排被打入冷宮喪失了拋球技能,但這并未降低他的受歡迎程度,杰克前女友普瑞斯移情別戀愛上了DV小子,損友兼競爭對手奧斯汀則時時向杰克發起挑戰。不堪風情迷戀男影星的眼鏡少女珍妮(凱樂•利 Chyler Leigh 飾)在學校是丑小鴨的角色,弟弟米奇跟一票朋友每日只想如何破處,苦戀珍妮的瑞奇用盡了一切辦法但仍然不能打動木訥的姑娘。杰克和珍妮,兩個看似毫無交集的人因為一個賭走到了一起,杰克和奧斯汀打賭將把珍妮變成最耀眼的舞會女孩,為此他不惜損失色相拜托姐姐凱瑟琳幫忙,然而隨著接觸日深,杰克真的被珍妮吸引了……
搞乜鬼青春雜作(港) / 少兒不宜 / 非一般青春大集會/非常男女4k Not.Another.Teen.Movie.2001.2160p.WEB.h265電影信息
  1. Video
  2. ID : 1
  3. Format : HEVC
  4. Format/Info : High Efficiency Video Coding
  5. Format profile : Main@L5@Main
  6. Codec ID : V_MPEGH/ISO/HEVC
  7. Duration : 1 h 28 min
  8. Bit rate : 14.5 Mb/s
  9. Width : 3 840 pixels
  10. Height : 2 080 pixels
  11. Display aspect ratio : 1.85:1
  12. Frame rate mode : Constant
  13. Frame rate : 23.976 (24000/1001) FPS
  14. Standard : NTSC
  15. Color space : YUV
  16. Chroma subsampling : 4:2:0
  17. Bit depth : 8 bits
  18. Bits/(Pixel*Frame) : 0.076
  19. Stream size : 9.04 GiB (96%)
  20. Writing library : x265 2.9_elemental+1-9e0607aa5b6f:[Linux][GCC 4.8.5][64 bit] 8bit+10bit+12bit
  21. Encoding settings : cpuid=1111039 / frame-threads=2 / wpp / no-pmode / no-pme / psnr / ssim / log-level=2 / csv / csv-log-level=2 / input-csp=1 / input-res=3840x2080 / interlace=0 / total-frames=0 / level-idc=50 / high-tier=1 / uhd-bd=0 / ref=5 / no-allow-non-conformance / no-repeat-headers / annexb / no-aud / no-hrd / info / hash=0 / no-temporal-layers / no-open-gop / min-keyint=61 / keyint=120 / gop-lookahead=0 / bframes=8 / b-adapt=2 / b-pyramid / bframe-bias=0 / rc-lookahead=120 / lookahead-slices=4 / scenecut=0 / radl=0 / no-intra-refresh / ctu=64 / min-cu-size=8 / rect / amp / max-tu-size=32 / tu-inter-depth=4 / tu-intra-depth=4 / limit-tu=4 / rdoq-level=2 / dynamic-rd=0.00 / no-ssim-rd / signhide / tskip / nr-intra=100 / nr-inter=600 / no-constrained-intra / strong-intra-smoothing / max-merge=3 / limit-refs=3 / limit-modes / me=3 / subme=3 / merange=57 / temporal-mvp / weightp / weightb / no-analyze-src-pics / deblock=0:0 / no-sao / no-sao-non-deblock / rd=4 / no-early-skip / no-rskip / no-fast-intra / tskip-fast / no-cu-lossless / b-intra / no-splitrd-skip / rdpenalty=0 / psy-rd=4.00 / psy-rdoq=10.00 / no-rd-refine / no-lossless / cbqpoffs=0 / crqpoffs=0 / rc=crf / crf=25.0 / qcomp=0.60 / qpstep=1 / stats-write=0 / stats-read=0 / vbv-maxrate=15000 / vbv-bufsize=20000 / vbv-init=0.9 / crf-max=0.0 / crf-min=0.0 / ipratio=1.10 / pbratio=1.00 / aq-mode=0 / aq-strength=1.50 / no-cutree / zone-count=0 / no-strict-cbr / qg-size=32 / rc-grain / qpmax=69 / qpmin=0 / const-vbv / sar=255 / sar-width / : / sar-height=481:480 / overscan=0 / videoformat=2 / range=0 / colorprim=1 / transfer=1 / colormatrix=1 / chromaloc=0 / display-window=0 / max-cll=0,0 / min-luma=0 / max-luma=255 / log2-max-poc-lsb=8 / vui-timing-info / vui-hrd-info / slices=1 / opt-qp-pps / no-opt-ref-list-length-pps / no-multi-pass-opt-rps / scenecut-bias=0.05 / no-opt-cu-delta-qp / no-aq-motion / no-hdr / no-hdr-opt / no-dhdr10-opt / no-idr-recovery-sei / analysis-reuse-level=5 / scale-factor=0 / refine-intra=0 / refine-inter=0 / refine-mv=0 / no-limit-sao / ctu-info=0 / no-lowpass-dct / refine-mv-type=0 / copy-pic=1 / max-ausize-factor=1.0 / no-dynamic-refine / no-single-sei
  22. Default : Yes
  23. Forced : No
  24. Color range : Limited
  25. Color primaries : BT.709
  26. Transfer characteristics : BT.709
  27. Matrix coefficients : BT.709

  28. Audio
  29. ID : 2
  30. Format : E-AC-3
  31. Format/Info : Enhanced AC-3
  32. Commercial name : Dolby Digital Plus
  33. Codec ID : A_EAC3
  34. Duration : 1 h 28 min
  35. Bit rate mode : Constant
  36. Bit rate : 640 kb/s
  37. Channel(s) : 6 channels
  38. Channel layout : L R C LFE Ls Rs
  39. Sampling rate : 48.0 kHz
  40. Frame rate : 31.250 FPS (1536 SPF)
  41. Compression mode : Lossy
  42. Stream size : 407 MiB (4%)
  43. Title : English
  44. Language : English
  45. Service kind : Complete Main
  46. Default : Yes
  47. Forced : No

  48. Text #1
  49. ID : 3
  50. Format : UTF-8
  51. Codec ID : S_TEXT/UTF8
  52. Codec ID/Info : UTF-8 Plain Text
  53. Duration : 1 h 28 min
  54. Bit rate : 79 b/s
  55. Count of elements : 1397
  56. Stream size : 51.7 KiB (0%)
  57. Title : English [Full]
  58. Language : English
  59. Default : No
  60. Forced : No

  61. Text #2
  62. ID : 4
  63. Format : UTF-8
  64. Codec ID : S_TEXT/UTF8
  65. Codec ID/Info : UTF-8 Plain Text
  66. Duration : 1 h 28 min
  67. Bit rate : 77 b/s
  68. Count of elements : 1401
  69. Stream size : 50.1 KiB (0%)
  70. Title : English [SDH]
  71. Language : English
  72. Default : No
  73. Forced : No

  74. Menu
  75. 00:00:00.000 : en:Studio Logo
  76. 00:00:19.000 : en:Janey embarrasses herself in front of her family
  77. 00:02:32.000 : en:Janey goes to school, Opening Credits
  78. 00:04:59.000 : en:Everyone talks before class
  79. 00:07:34.000 : en:Priscilla gives Jake some bad news
  80. 00:10:21.000 : en:Mr. Cornish introduces Janey to Areola
  81. 00:12:04.000 : en:Austin suggests a plan for Jake to get revenge on Priscilla
  82. 00:14:26.000 : en:Mitch and his friends creep on girls
  83. 00:15:14.000 : en:Ricky confesses his love for Janey
  84. 00:16:45.000 : en:Mitch and his friends try to spy on the girls in the locker room
  85. 00:18:59.000 : en:Jake tries to be friendly towards Janey
  86. 00:19:50.000 : en:The cheerleaders hold tryouts
  87. 00:21:19.000 : en:Jake remembers the big game
  88. 00:24:28.000 : en:Mitch and his friends make a pact
  89. 00:27:01.000 : en:Jake takes his frustration out on his father
  90. 00:27:57.000 : en:A confused Janey asks her father for advice
  91. 00:30:13.000 : en:Jake seeks help from Catherine
  92. 00:34:37.000 : en:Catherine gives Janey a makeover
  93. 00:37:56.000 : en:Jake takes Janey to the party
  94. 00:41:54.000 : en:Priscilla humiliates and insults Janey at the party
  95. 00:45:28.000 : en:Janey tells Jake about her childhood
  96. 00:48:30.000 : en:Janey ignores Priscilla's mean comments
  97. 00:49:17.000 : en:Austin tries to tease Jake
  98. 00:50:10.000 : en:Jake asks Janey to accompany him to the football game
  99. 00:51:25.000 : en:The football game begins
  100. 00:53:00.000 : en:The wise janitor tries to motivates Jake
  101. 00:57:04.000 : en:Jake tries to lead his team to victory
  102. 00:59:10.000 : en:Austin tricks Jake
  103. 01:01:42.000 : en:Everyone gets ready for prom
  104. 01:04:48.000 : en:Janey and Jake try to make each other jealous
  105. 01:08:16.000 : en:Prom King and Queen are announced
  106. 01:11:45.000 : en:Jake races to find Janey
  107. 01:16:17.000 : en:Jake confesses his feelings
  108. 01:22:15.000 : en:End Credits
復制代碼

搞乜鬼青春雜作(港) / 少兒不宜 / 非一般青春大集會/非常男女4k Not.Another.Teen.Movie.2001.2160p.WEB.h265電影下載
非常男女4k Not.Another.Teen.Movie.2001.2160p.WEB.h265【9.54 GB】
[Hao4k]非常男女4k Not.Another.Teen.Movie.2001.2160p.WEB.h265-WATCHER.torrent
(48.43 KB)
回復

使用道具 舉報

 

精彩評論16

倒序瀏覽
跳轉到指定樓層
 
15#
phskytom 發表于 6 天前 | 只看該作者

感謝樓主分享!
回復 支持 反對

使用道具 舉報

 
14#
cv2020 發表于 7 天前 來自手機 | 只看該作者
非常感謝分享
回復 支持 反對

使用道具 舉報

 
 
12#
jsszksxq1 發表于 7 天前 | 只看該作者
非常感謝分享!
回復 支持 反對

使用道具 舉報

 
11#
dyczw 發表于 7 天前 | 只看該作者
感謝分享,辛苦了!
回復 支持 反對

使用道具 舉報

 
 
9#
tmacse7en 發表于 2020-5-23 18:30:02 | 只看該作者
謝謝分享
回復 支持 反對

使用道具 舉報

 
8#
843937 發表于 2020-5-23 09:05:29 | 只看該作者
謝謝分享
回復 支持 反對

使用道具 舉報

 
 
6#
JOE919 發表于 2020-5-22 13:40:49 | 只看該作者
感謝分享
回復 支持 反對

使用道具 舉報

 
5#
18520199909 發表于 2020-5-22 08:18:12 來自手機 | 只看該作者
感謝分享
回復 支持 反對

使用道具 舉報

 
 
板凳
mccliqiang 發表于 2020-5-21 23:28:58 | 只看該作者
樓主發貼辛苦了
回復 支持 反對

使用道具 舉報

 
沙發
hunterj 發表于 2020-5-21 18:46:46 | 只看該作者
謝謝樓主分享
回復 支持 反對

使用道具 舉報

 
 
您需要登錄后才可以回帖 登錄 | 立即注冊

本版積分規則


0關注

301粉絲

209帖子

排行榜
社區廣告

超级快三邀请码關注微信公眾號第一時間推送精彩

官方微信

手機訪問

Hao4K影音

超级快三邀请码專注4k家庭影音,提供家庭影音社區,家庭影音器材庫,影音問答平臺,影音商城,服務千萬家庭影音用戶。

超级快三邀请码本站內容部分由用戶自主分享和轉載自互聯網,轉載目的在于傳遞更多信息,并不代表本網贊同其觀點和對其真實性負責。

超级快三邀请码如有侵權、違反國家法律政策行為,請聯系我們,我們會第一時間及時清除和處理!

超级快三邀请码舉報反饋郵箱:admin@hao4k.cn

Copyright   ©2019-2020  Hao4K影音     ( )|網站地圖