專注4K家庭影音, 服務千萬家庭影音發燒友!

在線
客服

QQ咨詢服務時間: 9:00-21:00

選擇下列客服馬上在線溝通:

快速
超级快三邀请码發帖

暫無
7*24小時客服服務熱線

關注
微信

頂部

[美劇] 叢林中的莫扎特 第三季4k Mozart.in.the.Jungle.S03.2160p.AMZN.WEB-DL.x265.10bit.HDR.DDP5.1電視劇

3002 0
大紅色 發表于 2020-5-19 17:19:40 | 只看該作者
電視劇頻道
電視劇封面:
電視劇名: 叢林中的莫扎特 第三季4k
年  代: 2016  
國  家: 美國
類  別: 劇情 喜劇 
語  言: 英語
字  幕: 英文原版
上映日期: 2016-12-09
文件格式: mkv    
視頻效果: 4K(3840x2160)    
資源大小: 28.05 GB
片  長: 30 分鐘
導  演: 保羅·韋茲
劇情簡介: Amazon已續訂《叢林中的莫扎特》第三季。
叢林中的莫扎特 第三季4k Mozart.in.the.Jungle.S03.2160p.AMZN.WEB-DL.x265.10bit.HDR.DDP5.1電視劇信息
  1. Video
  2. ID : 1
  3. Format : HEVC
  4. Format/Info : High Efficiency Video Coding
  5. Format profile : Main 10@L5@Main
  6. HDR format : SMPTE ST 2094 App 4, Version 0
  7. Codec ID : V_MPEGH/ISO/HEVC
  8. Duration : 30 min 56 s
  9. Bit rate : 14.1 Mb/s
  10. Width : 3 840 pixels
  11. Height : 2 160 pixels
  12. Display aspect ratio : 16:9
  13. Frame rate mode : Constant
  14. Frame rate : 23.976 (24000/1001) FPS
  15. Standard : NTSC
  16. Color space : YUV
  17. Chroma subsampling : 4:2:0 (Type 2)
  18. Bit depth : 10 bits
  19. Bits/(Pixel*Frame) : 0.071
  20. Stream size : 3.04 GiB (96%)
  21. Default : Yes
  22. Forced : No
  23. Color range : Limited
  24. Color primaries : BT.2020
  25. Transfer characteristics : PQ
  26. Matrix coefficients : BT.2020 non-constant
  27. Mastering display color primaries : Display P3
  28. Mastering display luminance : min: 0.0001 cd/m2, max: 1000 cd/m2
  29. Maximum Content Light Level : 1000 cd/m2
  30. Maximum Frame-Average Light Level : 261 cd/m2

  31. Audio
  32. ID : 2
  33. Format : E-AC-3
  34. Format/Info : Enhanced AC-3
  35. Commercial name : Dolby Digital Plus
  36. Codec ID : A_EAC3
  37. Duration : 30 min 56 s
  38. Bit rate mode : Constant
  39. Bit rate : 640 kb/s
  40. Channel(s) : 6 channels
  41. Channel layout : L R C LFE Ls Rs
  42. Sampling rate : 48.0 kHz
  43. Frame rate : 31.250 FPS (1536 SPF)
  44. Compression mode : Lossy
  45. Stream size : 142 MiB (4%)
  46. Title : English
  47. Language : English
  48. Service kind : Complete Main
  49. Default : Yes
  50. Forced : No

  51. Text #1
  52. ID : 3
  53. Format : UTF-8
  54. Codec ID : S_TEXT/UTF8
  55. Codec ID/Info : UTF-8 Plain Text
  56. Duration : 13 min 30 s
  57. Bit rate : 1 b/s
  58. Count of elements : 6
  59. Stream size : 117 Bytes (0%)
  60. Title : Forced
  61. Language : English
  62. Default : Yes
  63. Forced : Yes

  64. Text #2
  65. ID : 4
  66. Format : UTF-8
  67. Codec ID : S_TEXT/UTF8
  68. Codec ID/Info : UTF-8 Plain Text
  69. Duration : 28 min 53 s
  70. Bit rate : 82 b/s
  71. Count of elements : 617
  72. Stream size : 17.4 KiB (0%)
  73. Title : English (SDH)
  74. Language : English
  75. Default : No
  76. Forced : No

  77. Text #3
  78. ID : 5
  79. Format : UTF-8
  80. Codec ID : S_TEXT/UTF8
  81. Codec ID/Info : UTF-8 Plain Text
  82. Duration : 28 min 21 s
  83. Bit rate : 121 b/s
  84. Count of elements : 452
  85. Stream size : 25.2 KiB (0%)
  86. Title : Arabic
  87. Language : Arabic
  88. Default : No
  89. Forced : No

  90. Text #4
  91. ID : 6
  92. Format : UTF-8
  93. Codec ID : S_TEXT/UTF8
  94. Codec ID/Info : UTF-8 Plain Text
  95. Duration : 27 min 52 s
  96. Bit rate : 73 b/s
  97. Count of elements : 450
  98. Stream size : 15.1 KiB (0%)
  99. Title : Brazilian Portuguese
  100. Language : Portuguese
  101. Default : No
  102. Forced : No

  103. Text #5
  104. ID : 7
  105. Format : UTF-8
  106. Codec ID : S_TEXT/UTF8
  107. Codec ID/Info : UTF-8 Plain Text
  108. Duration : 27 min 52 s
  109. Bit rate : 72 b/s
  110. Count of elements : 449
  111. Stream size : 14.8 KiB (0%)
  112. Title : Castilian
  113. Language : Spanish
  114. Default : No
  115. Forced : No

  116. Text #6
  117. ID : 8
  118. Format : UTF-8
  119. Codec ID : S_TEXT/UTF8
  120. Codec ID/Info : UTF-8 Plain Text
  121. Duration : 28 min 21 s
  122. Bit rate : 67 b/s
  123. Count of elements : 452
  124. Stream size : 13.9 KiB (0%)
  125. Title : Chinese Simplified
  126. Language : Chinese
  127. Default : No
  128. Forced : No

  129. Text #7
  130. ID : 9
  131. Format : UTF-8
  132. Codec ID : S_TEXT/UTF8
  133. Codec ID/Info : UTF-8 Plain Text
  134. Duration : 28 min 21 s
  135. Bit rate : 63 b/s
  136. Count of elements : 452
  137. Stream size : 13.2 KiB (0%)
  138. Title : Chinese Traditional
  139. Language : Chinese
  140. Default : No
  141. Forced : No

  142. Text #8
  143. ID : 10
  144. Format : UTF-8
  145. Codec ID : S_TEXT/UTF8
  146. Codec ID/Info : UTF-8 Plain Text
  147. Duration : 28 min 21 s
  148. Bit rate : 70 b/s
  149. Count of elements : 447
  150. Stream size : 14.6 KiB (0%)
  151. Title : Danish
  152. Language : Danish
  153. Default : No
  154. Forced : No

  155. Text #9
  156. ID : 11
  157. Format : UTF-8
  158. Codec ID : S_TEXT/UTF8
  159. Codec ID/Info : UTF-8 Plain Text
  160. Duration : 28 min 21 s
  161. Bit rate : 70 b/s
  162. Count of elements : 450
  163. Stream size : 14.7 KiB (0%)
  164. Title : Dutch
  165. Language : Dutch
  166. Default : No
  167. Forced : No

  168. Text #10
  169. ID : 12
  170. Format : UTF-8
  171. Codec ID : S_TEXT/UTF8
  172. Codec ID/Info : UTF-8 Plain Text
  173. Duration : 28 min 16 s
  174. Bit rate : 61 b/s
  175. Count of elements : 440
  176. Stream size : 12.6 KiB (0%)
  177. Title : Finnish
  178. Language : Finnish
  179. Default : No
  180. Forced : No

  181. Text #11
  182. ID : 13
  183. Format : UTF-8
  184. Codec ID : S_TEXT/UTF8
  185. Codec ID/Info : UTF-8 Plain Text
  186. Duration : 27 min 52 s
  187. Bit rate : 74 b/s
  188. Count of elements : 447
  189. Stream size : 15.2 KiB (0%)
  190. Title : French
  191. Language : French
  192. Default : No
  193. Forced : No

  194. Text #12
  195. ID : 14
  196. Format : UTF-8
  197. Codec ID : S_TEXT/UTF8
  198. Codec ID/Info : UTF-8 Plain Text
  199. Duration : 27 min 43 s
  200. Bit rate : 71 b/s
  201. Count of elements : 358
  202. Stream size : 14.5 KiB (0%)
  203. Title : German
  204. Language : German
  205. Default : No
  206. Forced : No

  207. Text #13
  208. ID : 15
  209. Format : UTF-8
  210. Codec ID : S_TEXT/UTF8
  211. Codec ID/Info : UTF-8 Plain Text
  212. Duration : 28 min 21 s
  213. Bit rate : 71 b/s
  214. Count of elements : 452
  215. Stream size : 14.9 KiB (0%)
  216. Title : Indonesian
  217. Language : Indonesian
  218. Default : No
  219. Forced : No

  220. Text #14
  221. ID : 16
  222. Format : UTF-8
  223. Codec ID : S_TEXT/UTF8
  224. Codec ID/Info : UTF-8 Plain Text
  225. Duration : 27 min 52 s
  226. Bit rate : 75 b/s
  227. Count of elements : 449
  228. Stream size : 15.4 KiB (0%)
  229. Title : Italian
  230. Language : Italian
  231. Default : No
  232. Forced : No

  233. Text #15
  234. ID : 17
  235. Format : UTF-8
  236. Codec ID : S_TEXT/UTF8
  237. Codec ID/Info : UTF-8 Plain Text
  238. Duration : 28 min 21 s
  239. Bit rate : 75 b/s
  240. Count of elements : 451
  241. Stream size : 15.7 KiB (0%)
  242. Title : Korean
  243. Language : Korean
  244. Default : No
  245. Forced : No

  246. Text #16
  247. ID : 18
  248. Format : UTF-8
  249. Codec ID : S_TEXT/UTF8
  250. Codec ID/Info : UTF-8 Plain Text
  251. Duration : 28 min 21 s
  252. Bit rate : 71 b/s
  253. Count of elements : 449
  254. Stream size : 14.8 KiB (0%)
  255. Title : Norwegian
  256. Language : Norwegian
  257. Default : No
  258. Forced : No

  259. Text #17
  260. ID : 19
  261. Format : UTF-8
  262. Codec ID : S_TEXT/UTF8
  263. Codec ID/Info : UTF-8 Plain Text
  264. Duration : 28 min 21 s
  265. Bit rate : 72 b/s
  266. Count of elements : 451
  267. Stream size : 15.1 KiB (0%)
  268. Title : Polish
  269. Language : Polish
  270. Default : No
  271. Forced : No

  272. Text #18
  273. ID : 20
  274. Format : UTF-8
  275. Codec ID : S_TEXT/UTF8
  276. Codec ID/Info : UTF-8 Plain Text
  277. Duration : 28 min 21 s
  278. Bit rate : 209 b/s
  279. Count of elements : 453
  280. Stream size : 43.6 KiB (0%)
  281. Title : Tamil
  282. Language : Tamil
  283. Default : No
  284. Forced : No

  285. Text #19
  286. ID : 21
  287. Format : UTF-8
  288. Codec ID : S_TEXT/UTF8
  289. Codec ID/Info : UTF-8 Plain Text
  290. Duration : 28 min 21 s
  291. Bit rate : 117 b/s
  292. Count of elements : 451
  293. Stream size : 24.5 KiB (0%)
  294. Title : Russian
  295. Language : Russian
  296. Default : No
  297. Forced : No

  298. Text #20
  299. ID : 22
  300. Format : UTF-8
  301. Codec ID : S_TEXT/UTF8
  302. Codec ID/Info : UTF-8 Plain Text
  303. Duration : 27 min 52 s
  304. Bit rate : 72 b/s
  305. Count of elements : 449
  306. Stream size : 14.9 KiB (0%)
  307. Title : Spanish
  308. Language : Spanish
  309. Default : No
  310. Forced : No

  311. Text #21
  312. ID : 23
  313. Format : UTF-8
  314. Codec ID : S_TEXT/UTF8
  315. Codec ID/Info : UTF-8 Plain Text
  316. Duration : 27 min 52 s
  317. Bit rate : 73 b/s
  318. Count of elements : 444
  319. Stream size : 15.1 KiB (0%)
  320. Title : Swedish
  321. Language : Swedish
  322. Default : No
  323. Forced : No

  324. Text #22
  325. ID : 24
  326. Format : UTF-8
  327. Codec ID : S_TEXT/UTF8
  328. Codec ID/Info : UTF-8 Plain Text
  329. Duration : 28 min 21 s
  330. Bit rate : 72 b/s
  331. Count of elements : 449
  332. Stream size : 15.1 KiB (0%)
  333. Title : Turkish
  334. Language : Turkish
  335. Default : No
  336. Forced : No
復制代碼

叢林中的莫扎特 第三季4k Mozart.in.the.Jungle.S03.2160p.AMZN.WEB-DL.x265.10bit.HDR.DDP5.1電視劇下載
叢林中的莫扎特 第三季4k Mozart.in.the.Jungle.S03.2160p.AMZN.WEB-DL.x265.10bit.HDR.DDP5.1【28.05 GB】
[Hao4k]叢林中的莫扎特 第三季4k Mozart.in.the.Jungle.S03.2160p.AMZN.WEB-DL.x265.1.torrent
(71.51 KB)
回復

使用道具 舉報

 
您需要登錄后才可以回帖 登錄 | 立即注冊

本版積分規則


0關注

67粉絲

175帖子

排行榜
社區廣告

關注微信公眾號第一時間推送精彩

官方微信

手機訪問

Hao4K影音

專注4k家庭影音,提供家庭影音社區,家庭影音器材庫,影音問答平臺,影音商城,服務千萬家庭影音用戶。

超级快三邀请码本站內容部分由用戶自主分享和轉載自互聯網,轉載目的在于傳遞更多信息,并不代表本網贊同其觀點和對其真實性負責。

如有侵權、違反國家法律政策行為,請聯系我們,我們會第一時間及時清除和處理!

超级快三邀请码舉報反饋郵箱:admin@hao4k.cn

Copyright   ©2019-2020  Hao4K影音     ( )|網站地圖