專注4K家庭影音, 服務千萬家庭影音發燒友!

在線
超级快三邀请码客服

QQ咨詢服務時間: 9:00-21:00

選擇下列客服馬上在線溝通:

快速
發帖

暫無
7*24小時客服服務熱線

關注
微信

頂部

[美劇] 布偶奇遇記 第一季4k Fraggle.Rock.Rock.On.S01E03.2160p.WEB.h265電視劇

[復制鏈接]
2015 0
大紅色 發表于 2020-5-18 12:23:04 | 只看該作者 |只看大圖 |閱讀模式 打印 上一主題 下一主題
電視劇頻道
電視劇封面:
電視劇名: 布偶奇遇記 第一季4k
年  代: 80年代  
國  家: 美國
類  別: 冒險 喜劇 動畫 
語  言: 英語
字  幕: 英文原版
上映日期: 1983-01-10
文件格式: mkv    
視頻效果: 4K(3840x2160)    
資源大小: 715.92mb GB
片  長: 30 分鐘
導  演: George Bloomfield / 吉姆·亨森
劇情簡介:  Doc and his dog Sprocket have a hole in their wall, behind which live little furry creatures known as Fraggles in a place called Fraggle Rock. The Rock is also home to the Doozers (who are knee-high to a Fraggle) and the Gorgs (who are giants that think they rule the Rock). One gang of Fraggles (Gobo, Mokey, Wembley, Boober, and Red), under the guidance of the all-knowing Trash Heap (Marjorie), learn about each other and their neighbors and eventually befriend the Doozers, the Gorgs--and even Doc and Sprocket. Meanwhile, Gobo\'s Uncle Matt explores Outer Space (our world) and sends postcards to his nephew about the Silly Creatures (that\'s us). Written by Kathy Li {kli@qualcomm.com}
Jim Henson's Fraggle Rock / Fraggle Rock with Jim Henson's Muppets / 布偶也搖滾/布偶奇遇記 第一季4k Fraggle.Rock.Rock.On.S01E03.2160p.WEB.h265電視劇信息
  1. Video
  2. ID : 1
  3. Format : HEVC
  4. Format/Info : High Efficiency Video Coding
  5. Format profile : Main 10@L5@High
  6. Codec ID : V_MPEGH/ISO/HEVC
  7. Duration : 5 min 1 s
  8. Bit rate : 19.7 Mb/s
  9. Width : 3 840 pixels
  10. Height : 2 160 pixels
  11. Display aspect ratio : 16:9
  12. Frame rate mode : Constant
  13. Frame rate : 23.976 (24000/1001) FPS
  14. Color space : YUV
  15. Chroma subsampling : 4:2:0
  16. Bit depth : 10 bits
  17. Bits/(Pixel*Frame) : 0.099
  18. Stream size : 710 MiB (99%)
  19. Language : English
  20. Default : Yes
  21. Forced : No
  22. Color range : Limited
  23. Color primaries : BT.709
  24. Transfer characteristics : BT.709
  25. Matrix coefficients : BT.709

  26. Audio
  27. ID : 2
  28. Format : AAC LC
  29. Format/Info : Advanced Audio Codec Low Complexity
  30. Codec ID : A_AAC-2
  31. Duration : 5 min 2 s
  32. Bit rate : 150 kb/s
  33. Channel(s) : 2 channels
  34. Channel layout : L R
  35. Sampling rate : 48.0 kHz
  36. Frame rate : 46.875 FPS (1024 SPF)
  37. Compression mode : Lossy
  38. Stream size : 5.39 MiB (1%)
  39. Language : English
  40. Default : Yes
  41. Forced : No

  42. Text #1
  43. ID : 3
  44. Format : UTF-8
  45. Codec ID : S_TEXT/UTF8
  46. Codec ID/Info : UTF-8 Plain Text
  47. Duration : 4 min 46 s
  48. Bit rate : 74 b/s
  49. Count of elements : 110
  50. Stream size : 2.59 KiB (0%)
  51. Title : English
  52. Language : English
  53. Default : No
  54. Forced : No

  55. Text #2
  56. ID : 4
  57. Format : UTF-8
  58. Codec ID : S_TEXT/UTF8
  59. Codec ID/Info : UTF-8 Plain Text
  60. Duration : 4 min 46 s
  61. Bit rate : 90 b/s
  62. Count of elements : 114
  63. Stream size : 3.16 KiB (0%)
  64. Title : English (SDH)
  65. Language : English
  66. Default : No
  67. Forced : No
復制代碼

Jim Henson's Fraggle Rock / Fraggle Rock with Jim Henson's Muppets / 布偶也搖滾/布偶奇遇記 第一季4k Fraggle.Rock.Rock.On.S01E03.2160p.WEB.h265電視劇下載

布偶奇遇記 第一季4k Fraggle.Rock.Rock.On.S01E01.2160p.WEB.h265【715.92 MB】
布偶奇遇記 第一季4k Fraggle.Rock.Rock.On.S01E01.2160p.WEB.h265-WALT[rartv].torrent
(14.52 KB)

布偶奇遇記 第一季4k Fraggle.Rock.Rock.On.S01E02.2160p.WEB.h265【842.47 MB】
布偶奇遇記 第一季4k Fraggle.Rock.Rock.On.S01E02.2160p.WEB.h265-WALT[rartv].torrent
(17 KB)

布偶奇遇記 第一季4k Fraggle.Rock.Rock.On.S01E03.2160p.WEB.h265【855.84 MB】
布偶奇遇記 第一季4k Fraggle.Rock.Rock.On.S01E03.2160p.WEB.h265-WALT[rartv].torrent
(17.24 KB)

布偶奇遇記 第一季4k Fraggle.Rock.Rock.On.S01E04.2160p.WEB.h265【811.79 MB】
布偶奇遇記 第一季4k Fraggle.Rock.Rock.On.S01E04.2160p.WEB.h265-WALT[rartv].torrent
(16.38 KB)

布偶奇遇記 第一季4k Fraggle.Rock.Rock.On.S01E05.2160p.WEB.h265【853.63 MB】
布偶奇遇記 第一季4k Fraggle.Rock.Rock.On.S01E05.2160p.WEB.h265-WALT[rartv].torrent
(17.2 KB)
回復

使用道具 舉報

 
您需要登錄后才可以回帖 登錄 | 立即注冊

本版積分規則


0關注

66粉絲

169帖子

排行榜
社區廣告

關注微信公眾號第一時間推送精彩

官方微信

手機訪問

Hao4K影音

專注4k家庭影音,提供家庭影音社區,家庭影音器材庫,影音問答平臺,影音商城,服務千萬家庭影音用戶。

本站內容部分由用戶自主分享和轉載自互聯網,轉載目的在于傳遞更多信息,并不代表本網贊同其觀點和對其真實性負責。

超级快三邀请码如有侵權、違反國家法律政策行為,請聯系我們,我們會第一時間及時清除和處理!

舉報反饋郵箱:admin@hao4k.cn

Copyright   ©2019-2020  Hao4K影音     ( )|網站地圖