專注4K家庭影音, 服務千萬家庭影音發燒友!

在線
客服

QQ咨詢服務時間: 9:00-21:00

選擇下列客服馬上在線溝通:

快速
發帖

暫無
7*24小時客服服務熱線

關注
微信

頂部

失憶十分鐘4K.10.Minutes.Gone.2019.HDR.2160p.WEB.h265-電影下載

 
老頑童 發表于 2020-5-17 12:15:45 | 顯示全部樓層
電影頻道
電影封面:
片  名: 失憶十分鐘4K
電影分類: 犯罪   驚悚   
國  家: 美國   
年  代: 2019  
分 辨 率: 4K(3840x2160)    
電影格式: MKV|REMUX   
畫質標準: HDR    其他 
音質編碼: Dolby Digital Plus Audio    其他AAC 
電影聲道: 5.1聲道    
電影語言: 英文原版     
資源大小: 9.41 GB
導  演: 布萊恩·A·米勒
豆瓣評分: 4.1 分
中文字幕: /thread-47101-1-1.html
劇情簡介: 布魯斯·威利斯宣布主演犯罪驚悚片《失憶十分鐘》。主角由于一宗意外失控的搶劫案而喪失了部分記憶而,為了回憶起自己到底遭受了什么以及幕后真兇,他不得不尋找有關線索來將遺失在犯罪現場的記憶片段慢慢拼湊起來。
終極失憶/失憶十分鐘4K.10.Minutes.Gone.2019.HDR.2160p.WEB.h265-電影信息
  1.         
  2. Video
  3. ID : 1
  4. Format : HEVC
  5. Format/Info : High Efficiency Video Coding
  6. Format profile : Main 10@L5@Main
  7. HDR format : SMPTE ST 2094 App 4, Version 0
  8. Codec ID : V_MPEGH/ISO/HEVC
  9. Duration : 1 h 28 min
  10. Bit rate : 14.5 Mb/s
  11. Width : 3 840 pixels
  12. Height : 2 080 pixels
  13. Display aspect ratio : 1.85:1
  14. Frame rate mode : Constant
  15. Frame rate : 23.976 (24000/1001) FPS
  16. Standard : NTSC
  17. Color space : YUV
  18. Chroma subsampling : 4:2:0 (Type 2)
  19. Bit depth : 10 bits
  20. Bits/(Pixel*Frame) : 0.075
  21. Stream size : 8.91 GiB (96%)
  22. Default : Yes
  23. Forced : No
  24. Color range : Limited
  25. Color primaries : BT.2020
  26. Transfer characteristics : PQ
  27. Matrix coefficients : BT.2020 non-constant
  28. Mastering display color primaries : Display P3
  29. Mastering display luminance : min: 0.0001 cd/m2, max: 1000 cd/m2
  30. Maximum Content Light Level : 2659 cd/m2
  31. Maximum Frame-Average Light Level : 404 cd/m2

  32. Audio
  33. ID : 2
  34. Format : E-AC-3
  35. Format/Info : Enhanced AC-3
  36. Commercial name : Dolby Digital Plus
  37. Codec ID : A_EAC3
  38. Duration : 1 h 28 min
  39. Bit rate mode : Constant
  40. Bit rate : 640 kb/s
  41. Channel(s) : 6 channels
  42. Channel layout : L R C LFE Ls Rs
  43. Sampling rate : 48.0 kHz
  44. Frame rate : 31.250 FPS (1536 SPF)
  45. Compression mode : Lossy
  46. Stream size : 404 MiB (4%)
  47. Language : English
  48. Service kind : Complete Main
  49. Default : Yes
  50. Forced : No

  51. Text
  52. ID : 3
  53. Format : UTF-8
  54. Codec ID : S_TEXT/UTF8
  55. Codec ID/Info : UTF-8 Plain Text
  56. Duration : 1 h 26 min
  57. Bit rate : 60 b/s
  58. Count of elements : 1277
  59. Stream size : 38.8 KiB (0%)
  60. Language : English
  61. Default : No
  62. Forced : No

  63. Menu
  64. 00:00:00.000 : :1. Studio Logo
  65. 00:01:04.000 : :2. Acknowledgement
  66. 00:01:15.000 : :Scene 3
  67. 00:02:46.000 : :4. Opening Credits
  68. 00:05:39.000 : :5. Title Sequence
  69. 00:05:51.000 : :Scene 6
  70. 00:16:30.000 : :Scene 7
  71. 00:22:22.000 : :Scene 8
  72. 00:31:53.000 : :Scene 9
  73. 00:35:18.000 : :Scene 10
  74. 00:49:04.000 : :Scene 11
  75. 01:01:45.000 : :Scene 12
  76. 01:08:30.000 : :Scene 13
  77. 01:19:48.000 : :Scene 14
  78. 01:24:09.000 : :15. End Credits
復制代碼

終極失憶/失憶十分鐘4K.10.Minutes.Gone.2019.HDR.2160p.WEB.h265-電影下載
失憶十分鐘4K.10.Minutes.Gone.2019.HDR.2160p.WEB.h265-WATCHER【9.41 GB】
[Hao4K]失憶十分鐘4K.10.Minutes.Gone.2019.HDR.2160p.WEB.h265-WATCHER-.torrent
(47.76 KB, 售價: 2 K幣)
回復

使用道具 舉報

 

精彩評論86

正序瀏覽
 
rose678 發表于 2020-5-17 13:59:14 | 顯示全部樓層
謝謝樓主分享
回復 支持 反對

使用道具 舉報

 
ashuro4 發表于 2020-5-17 14:07:37 | 顯示全部樓層
謝謝樓主分享
回復 支持 反對

使用道具 舉報

 
 
tao158 發表于 2020-5-17 15:54:22 | 顯示全部樓層
謝謝樓主分享好片
回復 支持 反對

使用道具 舉報

 
chenjinqi 發表于 2020-5-17 16:13:41 來自手機 | 顯示全部樓層
謝謝樓主分享
回復 支持 反對

使用道具 舉報

 
 
ncray1959 發表于 2020-5-17 16:50:18 | 顯示全部樓層
thanks you so much
回復 支持 反對

使用道具 舉報

 
wyf1989527 發表于 2020-5-17 17:30:17 | 顯示全部樓層
謝謝樓主分享好片
回復 支持 反對

使用道具 舉報

 
 
jornling 發表于 2020-5-17 17:35:31 | 顯示全部樓層
謝謝樓主分享
回復 支持 反對

使用道具 舉報

 
yuanwenjin 發表于 2020-5-17 17:57:58 | 顯示全部樓層
好片,感謝樓主分享
回復 支持 反對

使用道具 舉報

 
AWM_Y 發表于 2020-5-17 17:58:43 來自手機 | 顯示全部樓層
為什么4k的電影大小才9g多?
回復 支持 反對

使用道具 舉報

 
jsszksxq1 發表于 2020-5-17 18:17:42 | 顯示全部樓層
謝謝樓主分享
回復 支持 反對

使用道具 舉報

 
大山山0532 發表于 2020-5-17 18:20:23 | 顯示全部樓層
感謝分享,下載了。
回復 支持 反對

使用道具 舉報

 
 
zlh223 發表于 2020-5-17 18:56:38 | 顯示全部樓層
謝謝樓主分享!!!
回復 支持 反對

使用道具 舉報

 
您需要登錄后才可以回帖 登錄 | 立即注冊

本版積分規則


0關注

21粉絲

23帖子

排行榜
社區廣告

關注微信公眾號第一時間推送精彩

官方微信

手機訪問

Hao4K影音

專注4k家庭影音,提供家庭影音社區,家庭影音器材庫,影音問答平臺,影音商城,服務千萬家庭影音用戶。

本站內容部分由用戶自主分享和轉載自互聯網,轉載目的在于傳遞更多信息,并不代表本網贊同其觀點和對其真實性負責。

如有侵權、違反國家法律政策行為,請聯系我們,我們會第一時間及時清除和處理!

舉報反饋郵箱:admin@hao4k.cn

Copyright   ©2019-2020  Hao4K影音     ( )|網站地圖