專注4K家庭影音, 服務千萬家庭影音發燒友!

在線
客服

QQ咨詢服務時間: 9:00-21:00

選擇下列客服馬上在線溝通:

快速
超级快三邀请码發帖

暫無
7*24小時客服服務熱線

關注
超级快三邀请码微信

頂部

小姐4k The.Handmaiden.2016.KOREAN.ENSUBBED.REPACK.HDR.2160p.WEB.h265電影下載

 
208725 83
老頑童 發表于 2020-5-12 10:03:53 | 只看該作者
電影頻道
電影封面:
片  名: 小姐4k
電影分類: 劇情   懸疑   愛情片   
國  家: 韓國   
年  代: 2016    
分 辨 率: 4K(3840x2160)    
電影格式: MKV|REMUX   
畫質標準: HDR    
音質編碼: Dolby Digital Plus Audio    
電影聲道: 其他 
電影語言: 無字幕     
資源大小: 15.87 GB
導  演: 樸贊郁
豆瓣評分: 8.2 分
中文字幕: /thread-46809-1-1.html
劇情簡介: 公爵(河正宇 飾)為了得到日本貴族秀子小姐(金敏喜 飾)的財產,意欲娶她為妻,而后以其患上精神疾病為由將秀子送入精神病院。為了實現自己的陰謀,公爵將出生于小偷世家的南淑熙(金泰璃 飾)送到秀子的身邊擔任女傭,如此一來兩人里應外合,深閨之中不諳世事的秀子和她的萬貫家財根本 就是他們的囊中之物。
  在南淑熙的眼中,秀子天真而又脆弱,善良但是敏感,隨著時間的推移,朝夕相處的兩人之間產生了真摯的情誼,而公爵虛偽而又貪婪的假面漸漸令南淑熙意欲作嘔。可是,面對高額的報酬,南淑熙選擇了背叛,在她的游說之下,秀子和公爵私奔,舉行了結婚儀式,就在這時,發生了一件令南淑熙再也想不到的意外。
下女誘罪(港) / 下女的誘惑(臺) / 指匠情挑 / The Handmaiden/小姐4k The.Handmaiden.2016.KOREAN.ENSUBBED.REPACK.HDR.2160p.WEB.h265電影信息
  1. Video
  2. ID : 1
  3. Format : HEVC
  4. Format/Info : High Efficiency Video Coding
  5. Format profile : Main 10@L5@Main
  6. HDR format : SMPTE ST 2094 App 4, Version 0
  7. Codec ID : V_MPEGH/ISO/HEVC
  8. Duration : 2 h 25 min
  9. Bit rate : 14.9 Mb/s
  10. Width : 3 840 pixels
  11. Height : 1 600 pixels
  12. Display aspect ratio : 2.40:1
  13. Frame rate mode : Constant
  14. Frame rate : 23.976 (24000/1001) FPS
  15. Standard : NTSC
  16. Color space : YUV
  17. Chroma subsampling : 4:2:0 (Type 2)
  18. Bit depth : 10 bits
  19. Bits/(Pixel*Frame) : 0.101
  20. Stream size : 15.1 GiB (96%)
  21. Default : Yes
  22. Forced : No
  23. Color range : Limited
  24. Color primaries : BT.2020
  25. Transfer characteristics : PQ
  26. Matrix coefficients : BT.2020 non-constant
  27. Mastering display color primaries : Display P3
  28. Mastering display luminance : min: 0.0001 cd/m2, max: 1000 cd/m2
  29. Maximum Content Light Level : 673 cd/m2
  30. Maximum Frame-Average Light Level : 396 cd/m2

  31. Audio
  32. ID : 2
  33. Format : E-AC-3
  34. Format/Info : Enhanced AC-3
  35. Commercial name : Dolby Digital Plus
  36. Codec ID : A_EAC3
  37. Duration : 2 h 25 min
  38. Bit rate mode : Constant
  39. Bit rate : 640 kb/s
  40. Channel(s) : 6 channels
  41. Channel layout : L R C LFE Ls Rs
  42. Sampling rate : 48.0 kHz
  43. Frame rate : 31.250 FPS (1536 SPF)
  44. Compression mode : Lossy
  45. Stream size : 665 MiB (4%)
  46. Language : English
  47. Service kind : Complete Main
  48. Default : Yes
  49. Forced : No

  50. Text
  51. ID : 3
  52. Format : UTF-8
  53. Codec ID : S_TEXT/UTF8
  54. Codec ID/Info : UTF-8 Plain Text
  55. Duration : 2 h 20 min
  56. Bit rate : 36 b/s
  57. Count of elements : 1260
  58. Stream size : 37.9 KiB (0%)
  59. Language : English
  60. Default : No
  61. Forced : No

  62. Menu
  63. 00:00:00.000 : :1. Studio Logos
  64. 00:01:02.000 : :2. Sook-Hee prepares to leave, Opening Credits
  65. 00:02:40.000 : :3. Okju is given a tour of her new home
  66. 00:06:23.000 : :4. Lady Hideko sees a ghost
  67. 00:07:56.000 : :5. Sook-Hee reveals how she landed the handmaiden job
  68. 00:13:01.000 : :6. Sook-Hee is introduced to Lady Hideko
  69. 00:19:21.000 : :7. Sook-Hee looks through Lady Hideko's things
  70. 00:20:11.000 : :8. Sook-Hee and Lady Hideko become better acquainted
  71. 00:24:11.000 : :9. Count Fujiwara arrives
  72. 00:27:52.000 : :10. Lady Hideko joins her Uncle and Count Fujiwara for dinner
  73. 00:29:07.000 : :11. Lady Hideko dresses Sook-Hee as a lady
  74. 00:31:59.000 : :12. Count Fujiwara gives Lady Hideko a painting lesson
  75. 00:35:08.000 : :13. Lady Hideko asks Sook-Hee about her mother
  76. 00:37:55.000 : :14. The job wears on Sook-Hee
  77. 00:40:06.000 : :15. Hideko summons Sook-Hee
  78. 00:46:53.000 : :16. Sook-Hee defends Lady Hideko
  79. 00:49:42.000 : :17. Hideko doesn't want to marry the Count
  80. 00:51:32.000 : :18. The Count continues to court Hideko
  81. 00:55:56.000 : :19. The Count and Lady Hideko stay at an inn for the evening
  82. 00:57:10.000 : :20. Sook-Hee grows impatient
  83. 01:00:20.000 : :21. The mental institution prepares for a new arrival
  84. 01:03:05.000 : :22. Hideko is not raised with compassion
  85. 01:06:35.000 : :23. Hideko is raised by her Aunt
  86. 01:12:14.000 : :24. Pain is a Garment
  87. 01:19:28.000 : :25. Hideko spies on the Count
  88. 01:24:24.000 : :26. Hideko and the Count put their plan into action
  89. 01:38:09.000 : :27. Lady Hideko wants out
  90. 01:48:48.000 : :28. The plan changes
  91. 01:54:21.000 : :29. Count Fujiwara proposes another marriage
  92. 01:57:18.000 : :30. A fire breaks out at the mad house
  93. 01:58:16.000 : :31. The Count attempts to have his way with Hideko
  94. 02:03:15.000 : :32. A new plan is put into action
  95. 02:08:38.000 : :33. Kozuki asks Fujiwara about the wedding night
  96. 02:13:48.000 : :34. The Count makes one more move
  97. 02:16:40.000 : :35. A new life begins
  98. 02:19:06.000 : :36. End Credits
復制代碼

下女誘罪(港) / 下女的誘惑(臺) / 指匠情挑 / The Handmaiden/小姐4k The.Handmaiden.2016.KOREAN.ENSUBBED.REPACK.HDR.2160p.WEB.h265電影下載
小姐4k The.Handmaiden.2016.KOREAN.ENSUBBED.REPACK.HDR.2160p.WEB.h265【15.87 GB】
[Hao4k]小姐4k The.Handmaiden.2016.KOREAN.ENSUBBED.REPACK.HDR.2160p.WEB.h265-WATC.torrent
(80.09 KB, 售價: 2 K幣)


小姐4k 電影中文字幕下載 感謝K友@xiaozuiba分享的字幕
http://hcpbx.com/thread-46809-1-1.html
回復

使用道具 舉報

 

精彩評論83

正序瀏覽
跳轉到指定樓層
 
板凳
1100105610 發表于 2020-5-12 11:27:37 | 只看該作者
這個是加長版嗎
回復 支持 1 反對 0

使用道具 舉報

 
地板
AWM_Y 發表于 2020-5-12 11:51:36 來自手機 | 只看該作者
怎么下載配套字幕呀
回復 支持 反對

使用道具 舉報

 
 
6#
liuD 發表于 2020-5-12 12:07:31 | 只看該作者
感謝分享下載看下!
回復 支持 反對

使用道具 舉報

 
7#
zongch 發表于 2020-5-12 13:10:15 | 只看該作者

謝謝樓主分享!!!
回復 支持 反對

使用道具 舉報

 
 
9#
jsszksxq1 發表于 2020-5-12 14:19:42 | 只看該作者
感謝樓主分享
回復 支持 反對

使用道具 舉報

 
10#
jsksxq 發表于 2020-5-12 14:26:10 | 只看該作者

感謝樓主分享
回復 支持 反對

使用道具 舉報

 
 
12#
Flippy 發表于 2020-5-12 14:39:51 | 只看該作者
我想請問一下這種比較小的容量的4K 算是真4K嗎??
回復 支持 反對

使用道具 舉報

 
13#
ajdyyy 發表于 2020-5-12 16:35:45 | 只看該作者
謝謝樓主分享!
回復 支持 反對

使用道具 舉報

 
 
15#
Piglet 發表于 2020-5-12 16:39:57 | 只看該作者
liuD 發表于 2020-5-12 12:07
感謝分享下載看下!

請問自帶字幕嗎?
回復 支持 反對

使用道具 舉報

 
16#
Piglet 發表于 2020-5-12 16:40:39 | 只看該作者
gzzj007 發表于 2020-5-12 10:17
評分還不錯,感謝分享

請問自帶字幕嗎?
回復 支持 反對

使用道具 舉報

 
 
18#
huli0203 發表于 2020-5-12 18:47:48 | 只看該作者

2:25:23
回復 支持 反對

使用道具 舉報

 
您需要登錄后才可以回帖 登錄 | 立即注冊

本版積分規則


0關注

23粉絲

25帖子

排行榜
社區廣告

關注微信公眾號第一時間推送精彩

官方微信

手機訪問

Hao4K影音

專注4k家庭影音,提供家庭影音社區,家庭影音器材庫,影音問答平臺,影音商城,服務千萬家庭影音用戶。

超级快三邀请码本站內容部分由用戶自主分享和轉載自互聯網,轉載目的在于傳遞更多信息,并不代表本網贊同其觀點和對其真實性負責。

如有侵權、違反國家法律政策行為,請聯系我們,我們會第一時間及時清除和處理!

舉報反饋郵箱:admin@hao4k.cn

Copyright   ©2019-2020  Hao4K影音     ( )|網站地圖