專注4K家庭影音, 服務千萬家庭影音發燒友!

在線
超级快三邀请码客服

QQ咨詢服務時間: 9:00-21:00

選擇下列客服馬上在線溝通:

快速
超级快三邀请码發帖

暫無
7*24小時客服服務熱線

關注
微信

頂部

[美劇] 億萬 第三季4k Billions.S03.2160p.WEB.H265電視劇

[復制鏈接]
4523 4
大紅色 發表于 2020-5-11 22:15:57 | 只看該作者 |只看大圖 |閱讀模式 打印 上一主題 下一主題
電視劇頻道
電視劇封面:
電視劇名: 億萬 第三季4k
年  代: 2018  
國  家: 美國
類  別: 犯罪 劇情 懸疑 
語  言: 英語
字  幕: 英文原版
上映日期: 2018-03-25
文件格式: mkv    
視頻效果: 4K(3840x2160)    
資源大小: 72.66 GB
片  長: 60 分鐘
導  演: 科林·巴克西 / 諾亞·艾默里奇 / 邁克爾·莫里斯 / 虞琳敏
劇情簡介: 《億萬》講述了紐約市政治與經濟領域、關于金錢的一場較量。故事主要描述兩個華爾街重量級人物之間的戰爭。精明、強硬的檢察官查克·羅茲(保羅·吉亞瑪提 飾)和才華橫溢、極具野心的對沖基金大亨鮑比·阿克塞爾羅德(戴米恩·路易斯 飾)。劇集設定包括了紐約的強權政治和金融活動的權謀詭計,通過錯綜復雜的敘事特色來編織一個高風險的追捕游戲。保羅·吉亞瑪提與戴米恩·路易斯兩位艾美、金球雙料視帝強強聯手出演。
億萬風云(港)/億萬 第三季4k Billions.S03.2160p.WEB.H265電視劇信息
  1. Video
  2. ID : 1
  3. Format : HEVC
  4. Format/Info : High Efficiency Video Coding
  5. Format profile : Main@L5@Main
  6. Codec ID : V_MPEGH/ISO/HEVC
  7. Duration : 59 min 57 s
  8. Bit rate : 14.5 Mb/s
  9. Width : 3 840 pixels
  10. Height : 2 160 pixels
  11. Display aspect ratio : 16:9
  12. Frame rate mode : Constant
  13. Frame rate : 23.976 (24000/1001) FPS
  14. Color space : YUV
  15. Chroma subsampling : 4:2:0
  16. Bit depth : 8 bits
  17. Bits/(Pixel*Frame) : 0.073
  18. Stream size : 6.09 GiB (95%)
  19. Writing library : x265 2.8hy:[Linux][GCC 7.5.0][64 bit] 8bit
  20. Encoding settings : cpuid=1111039 / frame-threads=1 / no-wpp / no-pmode / no-pme / no-psnr / no-ssim / log-level=2 / input-csp=1 / input-res=3840x2160 / interlace=0 / total-frames=0 / level-idc=0 / high-tier=1 / uhd-bd=0 / ref=4 / no-allow-non-conformance / repeat-headers / annexb / aud / hrd / info / hash=0 / no-temporal-layers / no-open-gop / min-keyint=48 / keyint=48 / gop-lookahead=0 / bframes=4 / b-adapt=2 / b-pyramid / bframe-bias=0 / rc-lookahead=48 / lookahead-slices=4 / scenecut=0 / radl=0 / no-intra-refresh / ctu=64 / min-cu-size=8 / rect / no-amp / max-tu-size=32 / tu-inter-depth=1 / tu-intra-depth=1 / limit-tu=0 / rdoq-level=2 / dynamic-rd=0.00 / no-ssim-rd / signhide / no-tskip / nr-intra=100 / nr-inter=200 / no-constrained-intra / strong-intra-smoothing / max-merge=3 / limit-refs=3 / limit-modes / me=3 / subme=3 / merange=57 / temporal-mvp / weightp / no-weightb / no-analyze-src-pics / deblock=0:0 / no-sao / no-sao-non-deblock / rd=4 / no-early-skip / no-rskip / no-fast-intra / no-tskip-fast / no-cu-lossless / no-b-intra / no-splitrd-skip / rdpenalty=0 / psy-rd=0.00 / psy-rdoq=10.00 / no-rd-refine / no-lossless / cbqpoffs=0 / crqpoffs=0 / rc=abr / bitrate=15000 / qcomp=0.60 / qpstep=1 / stats-write=0 / stats-read=2 / cplxblur=20.0 / qblur=0.5 / vbv-maxrate=18000 / vbv-bufsize=12000 / vbv-init=0.6 / vbv-end=0.6 / vbv-end-fr-adj=0.0 / ipratio=1.10 / pbratio=1.00 / aq-mode=0 / aq-strength=0.00 / no-cutree / zone-count=0 / no-strict-cbr / qg-size=32 / rc-grain / qpmax=69 / qpmin=0 / const-vbv / sar=0 / overscan=0 / videoformat=5 / range=0 / colorprim=1 / transfer=1 / colormatrix=1 / chromaloc=0 / display-window=0 / max-cll=0,0 / min-luma=0 / max-luma=255 / log2-max-poc-lsb=8 / vui-timing-info / vui-hrd-info / no-concatenation / slices=1 / no-opt-qp-pps / no-opt-ref-list-length-pps / no-multi-pass-opt-rps / scenecut-bias=0.05 / no-opt-cu-delta-qp / no-aq-motion / no-hdr / no-hdr-opt / no-dhdr10-opt / no-idr-recovery-sei / analysis-reuse-level=5 / scale-factor=0 / refine-intra=0 / refine-inter=0 / refine-mv=0 / no-limit-sao / ctu-info=0 / no-lowpass-dct / refine-mv-type=0 / copy-pic=1 / max-ausize-factor=1.0 / no-dynamic-refine / no-single-sei
  21. Language : English
  22. Default : Yes
  23. Forced : No
  24. Color range : Limited
  25. Color primaries : BT.709
  26. Transfer characteristics : BT.709
  27. Matrix coefficients : BT.709
  28. Statistics Tags Issue : no_variable_data 1970-01-01 00:00:00 / no_variable_data 2010-02-22 21:41:29
  29. FromStats_BitRate : 14834456
  30. FromStats_Duration : 00:59:57.219000000
  31. FromStats_FrameCount : 86247
  32. FromStats_StreamSize : 6670348698

  33. Audio
  34. ID : 2
  35. Format : AC-3
  36. Format/Info : Audio Coding 3
  37. Commercial name : Dolby Digital
  38. Codec ID : A_AC3
  39. Duration : 59 min 57 s
  40. Bit rate mode : Constant
  41. Bit rate : 384 kb/s
  42. Channel(s) : 6 channels
  43. Channel layout : L R C LFE Ls Rs
  44. Sampling rate : 48.0 kHz
  45. Frame rate : 31.250 FPS (1536 SPF)
  46. Bit depth : 16 bits
  47. Compression mode : Lossy
  48. Stream size : 165 MiB (3%)
  49. Language : English
  50. Service kind : Complete Main
  51. Default : Yes
  52. Forced : No
  53. Statistics Tags Issue : no_variable_data 1970-01-01 00:00:00 / no_variable_data 2010-02-22 21:41:29
  54. FromStats_BitRate : 384000
  55. FromStats_Duration : 00:59:57.216000000
  56. FromStats_FrameCount : 112413
  57. FromStats_StreamSize : 172666368
復制代碼

億萬風云(港)/億萬 第三季4k Billions.S03.2160p.WEB.H265電視劇下載
億萬 第三季4k Billions.S03.2160p.WEB.H265【72.66 GB】
億萬 第三季4k Billions.S03.2160p.WEB.H265-PETRiFiED[rartv].torrent
(182.99 KB)
回復

使用道具 舉報

 

精彩評論4

正序瀏覽
跳轉到指定樓層
 
沙發
nbmsa 發表于 2020-5-11 23:32:22 | 只看該作者
Hao4k果然是最大4K資源網站
回復 支持 反對

使用道具 舉報

 
板凳
raidenxu 發表于 2020-5-13 09:36:14 | 只看該作者
感謝分享,不知道會不會有第一第二季的資源
回復 支持 反對

使用道具 舉報

 
 
您需要登錄后才可以回帖 登錄 | 立即注冊

本版積分規則


0關注

66粉絲

169帖子

排行榜
社區廣告

關注微信公眾號第一時間推送精彩

官方微信

手機訪問

Hao4K影音

專注4k家庭影音,提供家庭影音社區,家庭影音器材庫,影音問答平臺,影音商城,服務千萬家庭影音用戶。

本站內容部分由用戶自主分享和轉載自互聯網,轉載目的在于傳遞更多信息,并不代表本網贊同其觀點和對其真實性負責。

如有侵權、違反國家法律政策行為,請聯系我們,我們會第一時間及時清除和處理!

超级快三邀请码舉報反饋郵箱:admin@hao4k.cn

Copyright   ©2019-2020  Hao4K影音     ( )|網站地圖