專注4K家庭影音, 服務千萬家庭影音發燒友!

在線
超级快三邀请码客服

QQ咨詢服務時間: 9:00-21:00

選擇下列客服馬上在線溝通:

快速
發帖

暫無
7*24小時客服服務熱線

關注
微信

頂部

[美劇] 后半生 第一季4k After.Life.S01.2160p.NF.WEBRip.DDP5.1.x265電視劇

[復制鏈接]
5505 0
大紅色 發表于 2020-5-8 09:57:03 | 只看該作者 |只看大圖 |閱讀模式 打印 上一主題 下一主題
電視劇頻道
電視劇封面:
電視劇名: 后半生 第一季4k
年  代: 2019  
國  家: 美國
類  別: 劇情 喜劇 
語  言: 英語
字  幕: 英文原版
上映日期: 2019-03-08
文件格式: mkv    
視頻效果: 4K(3840x2160)    
資源大小: 21.55 GB
片  長: 25 分鐘
導  演: 瑞奇·熱維斯
劇情簡介: 托尼(瑞奇·熱維斯飾)原本過著幸福美滿的生活。但他的妻子麗莎去世后,托尼性情大變。他曾想結束自己的生命,但最終決定要長久地活著,放縱自己,肆意任為,借此懲罰這個世界。他認為自己好像擁有一種超級力量,不再關心自己或任何人。但事實證明,當每個人試圖拯救他們曾經認識的好人時,這種力量瞬間弱化。
  除熱維斯之外,本片主演還有飾演托尼妻子麗莎的克里·戈德利曼(《德里克》)、飾演托尼妹夫馬特的湯姆·巴斯登(《羅馬三賤客》、《路上人生》)、飾演托尼好友蘭尼的托尼·威(《明日邊緣》)、飾演托尼父親的大衛·布拉德利(《哈利·波特》系列電影、《權利的游戲》)以及飾演托尼父親的護士的阿什利·詹森(《臨時演員》)。
  其他主演還有佩內洛普·威爾頓(《唐頓莊園》、《神秘博士》)、大衛·厄爾(《陵園路口》、《德里克》)、喬·威爾金森(《他和她》)、克里·戈德利曼(《德里克》)、曼蒂普·迪倫、喬·哈特利、魯瓦森·科納蒂、蒂姆·普萊斯特和黛安·摩根(《路上人生》)。
  《后半生》是 Derek Productions 推出的 Netflix 原創劇集。這部六集系列劇由瑞奇·熱維斯擔任創劇人、編劇和導演。查理·漢森擔任制片人,瑞奇·熱維斯和鄧肯·海耶斯擔任監制。
本帖最后由 大紅色 于 2020-5-8 09:59 編輯

后半生 第一季4k After.Life.S01.2160p.NF.WEBRip.DDP5.1.x265電視劇信息
  1. Video
  2. ID : 1
  3. Format : HEVC
  4. Format/Info : High Efficiency Video Coding
  5. Format profile : Main 10@L5.1@High
  6. Codec ID : V_MPEGH/ISO/HEVC
  7. Duration : 31 min 10 s
  8. Bit rate : 21.3 Mb/s
  9. Width : 3 840 pixels
  10. Height : 2 160 pixels
  11. Display aspect ratio : 16:9
  12. Frame rate mode : Constant
  13. Frame rate : 25.000 FPS
  14. Color space : YUV
  15. Chroma subsampling : 4:2:0
  16. Bit depth : 10 bits
  17. Bits/(Pixel*Frame) : 0.103
  18. Stream size : 4.64 GiB (97%)
  19. Writing library : x265 3.3+26-193db4916b9f:[Windows][MSVC 1925][64 bit] 10bit
  20. Encoding settings : cpuid=1049583 / frame-threads=3 / numa-pools=8 / wpp / no-pmode / no-pme / no-psnr / no-ssim / log-level=2 / input-csp=1 / input-res=3840x2160 / interlace=0 / total-frames=46760 / level-idc=51 / high-tier=1 / uhd-bd=0 / ref=5 / no-allow-non-conformance / repeat-headers / annexb / aud / hrd / info / hash=0 / no-temporal-layers / open-gop / min-keyint=25 / keyint=250 / gop-lookahead=0 / bframes=8 / b-adapt=2 / b-pyramid / bframe-bias=0 / rc-lookahead=40 / lookahead-slices=8 / scenecut=40 / hist-scenecut=0 / radl=0 / no-splice / no-intra-refresh / ctu=64 / min-cu-size=8 / no-rect / no-amp / max-tu-size=32 / tu-inter-depth=4 / tu-intra-depth=4 / limit-tu=4 / rdoq-level=0 / dynamic-rd=0.00 / no-ssim-rd / signhide / no-tskip / nr-intra=0 / nr-inter=0 / no-constrained-intra / strong-intra-smoothing / max-merge=4 / limit-refs=1 / no-limit-modes / me=1 / subme=5 / merange=57 / temporal-mvp / no-frame-dup / no-hme / weightp / weightb / no-analyze-src-pics / deblock=-3:-3 / no-sao / no-sao-non-deblock / rd=4 / selective-sao=0 / early-skip / rskip / no-fast-intra / no-tskip-fast / no-cu-lossless / b-intra / no-splitrd-skip / rdpenalty=0 / psy-rd=2.00 / psy-rdoq=0.00 / no-rd-refine / no-lossless / cbqpoffs=0 / crqpoffs=0 / rc=crf / crf=19.0 / qcomp=0.60 / qpstep=4 / stats-write=0 / stats-read=0 / vbv-maxrate=160000 / vbv-bufsize=160000 / vbv-init=0.9 / crf-max=0.0 / crf-min=0.0 / ipratio=1.30 / pbratio=1.20 / aq-mode=1 / aq-strength=0.80 / no-cutree / zone-count=0 / no-strict-cbr / qg-size=32 / no-rc-grain / qpmax=69 / qpmin=0 / no-const-vbv / sar=1 / overscan=0 / videoformat=5 / range=0 / colorprim=1 / transfer=1 / colormatrix=1 / chromaloc=0 / display-window=0 / cll=0,0 / min-luma=0 / max-luma=1023 / log2-max-poc-lsb=8 / vui-timing-info / vui-hrd-info / slices=1 / no-opt-qp-pps / no-opt-ref-list-length-pps / no-multi-pass-opt-rps / scenecut-bias=0.05 / hist-threshold=0.01 / no-opt-cu-delta-qp / no-aq-motion / no-hdr10 / no-hdr10-opt / no-dhdr10-opt / no-idr-recovery-sei / analysis-reuse-level=0 / analysis-save-reuse-level=0 / analysis-load-reuse-level=0 / scale-factor=0 / refine-intra=0 / refine-inter=0 / refine-mv=1 / refine-ctu-distortion=0 / no-limit-sao / ctu-info=0 / no-lowpass-dct / refine-analysis-type=0 / copy-pic=1 / max-ausize-factor=1.0 / no-dynamic-refine / no-single-sei / no-hevc-aq / no-svt / no-field / qp-adaptation-range=1.00 / no-scenecut-aware-qpconformance-window-offsets / right=0 / bottom=0 / decoder-max-rate=0
  21. Default : Yes
  22. Forced : No
  23. Color range : Limited
  24. Color primaries : BT.709
  25. Transfer characteristics : BT.709
  26. Matrix coefficients : BT.709

  27. Audio
  28. ID : 2
  29. Format : E-AC-3
  30. Format/Info : Enhanced AC-3
  31. Commercial name : Dolby Digital Plus
  32. Codec ID : A_EAC3
  33. Duration : 31 min 10 s
  34. Bit rate mode : Constant
  35. Bit rate : 640 kb/s
  36. Channel(s) : 6 channels
  37. Channel layout : L R C LFE Ls Rs
  38. Sampling rate : 48.0 kHz
  39. Frame rate : 31.250 FPS (1536 SPF)
  40. Compression mode : Lossy
  41. Stream size : 143 MiB (3%)
  42. Title : English
  43. Language : English
  44. Service kind : Complete Main
  45. Default : Yes
  46. Forced : No

  47. Text #1
  48. ID : 3
  49. Format : UTF-8
  50. Codec ID : S_TEXT/UTF8
  51. Codec ID/Info : UTF-8 Plain Text
  52. Duration : 29 min 58 s
  53. Bit rate : 85 b/s
  54. Count of elements : 612
  55. Stream size : 18.8 KiB (0%)
  56. Title : SDH
  57. Language : English
  58. Default : No
  59. Forced : No

  60. Text #2
  61. ID : 4
  62. Format : UTF-8
  63. Codec ID : S_TEXT/UTF8
  64. Codec ID/Info : UTF-8 Plain Text
  65. Duration : 30 min 6 s
  66. Bit rate : 127 b/s
  67. Count of elements : 558
  68. Stream size : 28.1 KiB (0%)
  69. Language : Arabic
  70. Default : No
  71. Forced : No

  72. Text #3
  73. ID : 5
  74. Format : UTF-8
  75. Codec ID : S_TEXT/UTF8
  76. Codec ID/Info : UTF-8 Plain Text
  77. Duration : 29 min 28 s
  78. Bit rate : 72 b/s
  79. Count of elements : 403
  80. Stream size : 15.6 KiB (0%)
  81. Language : Czech
  82. Default : No
  83. Forced : No

  84. Text #4
  85. ID : 6
  86. Format : UTF-8
  87. Codec ID : S_TEXT/UTF8
  88. Codec ID/Info : UTF-8 Plain Text
  89. Duration : 30 min 6 s
  90. Bit rate : 69 b/s
  91. Count of elements : 421
  92. Stream size : 15.4 KiB (0%)
  93. Language : Danish
  94. Default : No
  95. Forced : No

  96. Text #5
  97. ID : 7
  98. Format : UTF-8
  99. Codec ID : S_TEXT/UTF8
  100. Codec ID/Info : UTF-8 Plain Text
  101. Duration : 29 min 0 s
  102. Bit rate : 74 b/s
  103. Count of elements : 497
  104. Stream size : 15.9 KiB (0%)
  105. Language : German
  106. Default : No
  107. Forced : No

  108. Text #6
  109. ID : 8
  110. Format : UTF-8
  111. Codec ID : S_TEXT/UTF8
  112. Codec ID/Info : UTF-8 Plain Text
  113. Duration : 30 min 6 s
  114. Bit rate : 114 b/s
  115. Count of elements : 551
  116. Stream size : 25.2 KiB (0%)
  117. Language : Greek
  118. Default : No
  119. Forced : No

  120. Text #7
  121. ID : 9
  122. Format : UTF-8
  123. Codec ID : S_TEXT/UTF8
  124. Codec ID/Info : UTF-8 Plain Text
  125. Duration : 30 min 6 s
  126. Bit rate : 70 b/s
  127. Count of elements : 533
  128. Stream size : 15.5 KiB (0%)
  129. Language : Spanish
  130. Default : No
  131. Forced : No

  132. Text #8
  133. ID : 10
  134. Format : UTF-8
  135. Codec ID : S_TEXT/UTF8
  136. Codec ID/Info : UTF-8 Plain Text
  137. Duration : 29 min 0 s
  138. Bit rate : 67 b/s
  139. Count of elements : 540
  140. Stream size : 14.4 KiB (0%)
  141. Title : European
  142. Language : Spanish
  143. Default : No
  144. Forced : No

  145. Text #9
  146. ID : 11
  147. Format : UTF-8
  148. Codec ID : S_TEXT/UTF8
  149. Codec ID/Info : UTF-8 Plain Text
  150. Duration : 30 min 8 s
  151. Bit rate : 61 b/s
  152. Count of elements : 461
  153. Stream size : 13.6 KiB (0%)
  154. Language : Finnish
  155. Default : No
  156. Forced : No

  157. Text #10
  158. ID : 12
  159. Format : UTF-8
  160. Codec ID : S_TEXT/UTF8
  161. Codec ID/Info : UTF-8 Plain Text
  162. Duration : 29 min 0 s
  163. Bit rate : 71 b/s
  164. Count of elements : 537
  165. Stream size : 15.2 KiB (0%)
  166. Language : French
  167. Default : No
  168. Forced : No

  169. Text #11
  170. ID : 13
  171. Format : UTF-8
  172. Codec ID : S_TEXT/UTF8
  173. Codec ID/Info : UTF-8 Plain Text
  174. Duration : 29 min 0 s
  175. Bit rate : 120 b/s
  176. Count of elements : 515
  177. Stream size : 25.7 KiB (0%)
  178. Language : Hebrew
  179. Default : No
  180. Forced : No

  181. Text #12
  182. ID : 14
  183. Format : UTF-8
  184. Codec ID : S_TEXT/UTF8
  185. Codec ID/Info : UTF-8 Plain Text
  186. Duration : 30 min 6 s
  187. Bit rate : 66 b/s
  188. Count of elements : 402
  189. Stream size : 14.7 KiB (0%)
  190. Language : Hungarian
  191. Default : No
  192. Forced : No

  193. Text #13
  194. ID : 15
  195. Format : UTF-8
  196. Codec ID : S_TEXT/UTF8
  197. Codec ID/Info : UTF-8 Plain Text
  198. Duration : 30 min 7 s
  199. Bit rate : 68 b/s
  200. Count of elements : 550
  201. Stream size : 15.1 KiB (0%)
  202. Language : Indonesian
  203. Default : No
  204. Forced : No

  205. Text #14
  206. ID : 16
  207. Format : UTF-8
  208. Codec ID : S_TEXT/UTF8
  209. Codec ID/Info : UTF-8 Plain Text
  210. Duration : 30 min 6 s
  211. Bit rate : 63 b/s
  212. Count of elements : 520
  213. Stream size : 14.0 KiB (0%)
  214. Language : Italian
  215. Default : No
  216. Forced : No

  217. Text #15
  218. ID : 17
  219. Format : UTF-8
  220. Codec ID : S_TEXT/UTF8
  221. Codec ID/Info : UTF-8 Plain Text
  222. Duration : 30 min 6 s
  223. Bit rate : 62 b/s
  224. Count of elements : 572
  225. Stream size : 13.8 KiB (0%)
  226. Language : Japanese
  227. Default : No
  228. Forced : No

  229. Text #16
  230. ID : 18
  231. Format : UTF-8
  232. Codec ID : S_TEXT/UTF8
  233. Codec ID/Info : UTF-8 Plain Text
  234. Duration : 29 min 0 s
  235. Bit rate : 87 b/s
  236. Count of elements : 560
  237. Stream size : 18.6 KiB (0%)
  238. Language : Korean
  239. Default : No
  240. Forced : No

  241. Text #17
  242. ID : 19
  243. Format : UTF-8
  244. Codec ID : S_TEXT/UTF8
  245. Codec ID/Info : UTF-8 Plain Text
  246. Duration : 30 min 6 s
  247. Bit rate : 69 b/s
  248. Count of elements : 468
  249. Stream size : 15.3 KiB (0%)
  250. Language : Norwegian Bokmal
  251. Default : No
  252. Forced : No

  253. Text #18
  254. ID : 20
  255. Format : UTF-8
  256. Codec ID : S_TEXT/UTF8
  257. Codec ID/Info : UTF-8 Plain Text
  258. Duration : 30 min 6 s
  259. Bit rate : 68 b/s
  260. Count of elements : 480
  261. Stream size : 15.0 KiB (0%)
  262. Language : Dutch
  263. Default : No
  264. Forced : No

  265. Text #19
  266. ID : 21
  267. Format : UTF-8
  268. Codec ID : S_TEXT/UTF8
  269. Codec ID/Info : UTF-8 Plain Text
  270. Duration : 30 min 6 s
  271. Bit rate : 65 b/s
  272. Count of elements : 511
  273. Stream size : 14.4 KiB (0%)
  274. Language : Polish
  275. Default : No
  276. Forced : No

  277. Text #20
  278. ID : 22
  279. Format : UTF-8
  280. Codec ID : S_TEXT/UTF8
  281. Codec ID/Info : UTF-8 Plain Text
  282. Duration : 30 min 8 s
  283. Bit rate : 69 b/s
  284. Count of elements : 503
  285. Stream size : 15.4 KiB (0%)
  286. Language : Portuguese
  287. Default : No
  288. Forced : No

  289. Text #21
  290. ID : 23
  291. Format : UTF-8
  292. Codec ID : S_TEXT/UTF8
  293. Codec ID/Info : UTF-8 Plain Text
  294. Duration : 30 min 7 s
  295. Bit rate : 75 b/s
  296. Count of elements : 550
  297. Stream size : 16.6 KiB (0%)
  298. Title : Brazilian
  299. Language : Portuguese
  300. Default : No
  301. Forced : No

  302. Text #22
  303. ID : 24
  304. Format : UTF-8
  305. Codec ID : S_TEXT/UTF8
  306. Codec ID/Info : UTF-8 Plain Text
  307. Duration : 30 min 10 s
  308. Bit rate : 79 b/s
  309. Count of elements : 528
  310. Stream size : 17.5 KiB (0%)
  311. Language : Romanian
  312. Default : No
  313. Forced : No

  314. Text #23
  315. ID : 25
  316. Format : UTF-8
  317. Codec ID : S_TEXT/UTF8
  318. Codec ID/Info : UTF-8 Plain Text
  319. Duration : 29 min 0 s
  320. Bit rate : 118 b/s
  321. Count of elements : 545
  322. Stream size : 25.2 KiB (0%)
  323. Language : Russian
  324. Default : No
  325. Forced : No

  326. Text #24
  327. ID : 26
  328. Format : UTF-8
  329. Codec ID : S_TEXT/UTF8
  330. Codec ID/Info : UTF-8 Plain Text
  331. Duration : 30 min 6 s
  332. Bit rate : 72 b/s
  333. Count of elements : 559
  334. Stream size : 16.0 KiB (0%)
  335. Language : Swedish
  336. Default : No
  337. Forced : No

  338. Text #25
  339. ID : 27
  340. Format : UTF-8
  341. Codec ID : S_TEXT/UTF8
  342. Codec ID/Info : UTF-8 Plain Text
  343. Duration : 29 min 0 s
  344. Bit rate : 191 b/s
  345. Count of elements : 566
  346. Stream size : 40.6 KiB (0%)
  347. Language : Thai
  348. Default : No
  349. Forced : No

  350. Text #26
  351. ID : 28
  352. Format : UTF-8
  353. Codec ID : S_TEXT/UTF8
  354. Codec ID/Info : UTF-8 Plain Text
  355. Duration : 30 min 8 s
  356. Bit rate : 73 b/s
  357. Count of elements : 535
  358. Stream size : 16.2 KiB (0%)
  359. Language : Turkish
  360. Default : No
  361. Forced : No

  362. Text #27
  363. ID : 29
  364. Format : UTF-8
  365. Codec ID : S_TEXT/UTF8
  366. Codec ID/Info : UTF-8 Plain Text
  367. Duration : 30 min 6 s
  368. Bit rate : 97 b/s
  369. Count of elements : 497
  370. Stream size : 21.6 KiB (0%)
  371. Language : Vietnamese
  372. Default : No
  373. Forced : No

  374. Text #28
  375. ID : 30
  376. Format : UTF-8
  377. Codec ID : S_TEXT/UTF8
  378. Codec ID/Info : UTF-8 Plain Text
  379. Duration : 29 min 0 s
  380. Bit rate : 77 b/s
  381. Count of elements : 566
  382. Stream size : 16.5 KiB (0%)
  383. Title : Simplified
  384. Language : Chinese
  385. Default : No
  386. Forced : No

  387. Text #29
  388. ID : 31
  389. Format : UTF-8
  390. Codec ID : S_TEXT/UTF8
  391. Codec ID/Info : UTF-8 Plain Text
  392. Duration : 30 min 6 s
  393. Bit rate : 74 b/s
  394. Count of elements : 558
  395. Stream size : 16.4 KiB (0%)
  396. Title : Traditional
  397. Language : Chinese
  398. Default : No
  399. Forced : No
復制代碼


后半生 第一季4k After.Life.S01.2160p.NF.WEBRip.DDP5.1.x265電視劇下載
后半生 第一季4k After.Life.S01.2160p.NF.WEBRip.DDP5.1.x265【21.55 GB】
后半生 第一季4k After.Life.S01.2160p.NF.WEBRip.DDP5.1.x265-NTb[rartv].torrent
(54.83 KB)

后半生 第二季4k After.Life.S02.2160p.NF.WEBRip.DDP5.1.x265【17.13 GB】
后半生 第二季4k After.Life.S02.2160p.NF.WEBRip.DDP5.1.x265-NTb[rartv].torrent
(86.61 KB)
回復

使用道具 舉報

 
您需要登錄后才可以回帖 登錄 | 立即注冊

本版積分規則


0關注

66粉絲

169帖子

排行榜
社區廣告

關注微信公眾號第一時間推送精彩

官方微信

手機訪問

Hao4K影音

專注4k家庭影音,提供家庭影音社區,家庭影音器材庫,影音問答平臺,影音商城,服務千萬家庭影音用戶。

超级快三邀请码本站內容部分由用戶自主分享和轉載自互聯網,轉載目的在于傳遞更多信息,并不代表本網贊同其觀點和對其真實性負責。

超级快三邀请码如有侵權、違反國家法律政策行為,請聯系我們,我們會第一時間及時清除和處理!

超级快三邀请码舉報反饋郵箱:admin@hao4k.cn

Copyright   ©2019-2020  Hao4K影音     ( )|網站地圖