專注4K家庭影音, 服務千萬家庭影音發燒友!

在線
客服

QQ咨詢服務時間: 9:00-21:00

選擇下列客服馬上在線溝通:

快速
發帖

暫無
7*24小時客服服務熱線

關注
微信

頂部

[美劇] 納粹獵人4k Hunters.2020.S01.2160p.AMZN.WEB-DL.x265.10bit.HDR.DDP5.1電視劇

8111 1
大紅色 發表于 2020-5-7 21:46:48 | 只看該作者
電視劇頻道
電視劇封面:
電視劇名: 納粹獵人4k
年  代: 2020  
國  家: 美國
類  別: 劇情 
語  言: 英語
字  幕: 英文原版
上映日期: 2020-02-21
文件格式: mkv    
視頻效果: 4K(3840x2160)    
資源大小: 68.89 GB
片  長: 90 分鐘
導  演: 尼爾森·麥科米克 / 韋恩·葉 / 阿方索·戈麥斯-雷洪 / 丹尼·高頓 / 米利塞特·謝爾頓 / 邁克爾·烏彭達爾
劇情簡介: 聚焦1977年紐約的一群納粹獵人,他們發現數百名納粹高級官員生活在他們當中,正在密謀在美國建立第四帝國。納粹獵人們將尋求將納粹繩之以法,阻撓他們新的大屠殺計劃。勒曼有望飾演Jonah Heidelbaum,他的祖母在家中被一名神秘的闖入者殺害,他著手追蹤犯罪者,卻發現自己被卷入一個叫作“納粹獵人”的組織,他們致力于根除那些用虛假身份生活在美國的納粹兇手。
獵殺納粹 / 捕獵 / 納粹捕獵者 / The Hunt/納粹獵人4k Hunters.2020.S01.2160p.AMZN.WEB-DL.x265.10bit.HDR.DDP5.1電視劇信息
  1. Video
  2. ID : 1
  3. Format : HEVC
  4. Format/Info : High Efficiency Video Coding
  5. Format profile : Main 10@L5@Main
  6. HDR format : SMPTE ST 2094 App 4, Version 0
  7. Codec ID : V_MPEGH/ISO/HEVC
  8. Duration : 1 h 30 min
  9. Bit rate : 14.6 Mb/s
  10. Width : 3 840 pixels
  11. Height : 2 160 pixels
  12. Display aspect ratio : 16:9
  13. Frame rate mode : Constant
  14. Frame rate : 23.976 (24000/1001) FPS
  15. Standard : NTSC
  16. Color space : YUV
  17. Chroma subsampling : 4:2:0 (Type 2)
  18. Bit depth : 10 bits
  19. Bits/(Pixel*Frame) : 0.074
  20. Stream size : 9.24 GiB (96%)
  21. Default : Yes
  22. Forced : No
  23. Color range : Limited
  24. Color primaries : BT.2020
  25. Transfer characteristics : PQ
  26. Matrix coefficients : BT.2020 non-constant
  27. Mastering display color primaries : Display P3
  28. Mastering display luminance : min: 0.0001 cd/m2, max: 1000 cd/m2
  29. Maximum Content Light Level : 1000 cd/m2
  30. Maximum Frame-Average Light Level : 171 cd/m2

  31. Audio
  32. ID : 2
  33. Format : E-AC-3
  34. Format/Info : Enhanced AC-3
  35. Commercial name : Dolby Digital Plus
  36. Codec ID : A_EAC3
  37. Duration : 1 h 30 min
  38. Bit rate mode : Constant
  39. Bit rate : 640 kb/s
  40. Channel(s) : 6 channels
  41. Channel layout : L R C LFE Ls Rs
  42. Sampling rate : 48.0 kHz
  43. Frame rate : 31.250 FPS (1536 SPF)
  44. Compression mode : Lossy
  45. Stream size : 413 MiB (4%)
  46. Title : English
  47. Language : English
  48. Service kind : Complete Main
  49. Default : Yes
  50. Forced : No

  51. Text #1
  52. ID : 3
  53. Format : UTF-8
  54. Codec ID : S_TEXT/UTF8
  55. Codec ID/Info : UTF-8 Plain Text
  56. Duration : 50 min 0 s
  57. Bit rate : 0 b/s
  58. Count of elements : 8
  59. Stream size : 131 Bytes (0%)
  60. Title : English [Forced]
  61. Language : English
  62. Default : No
  63. Forced : Yes

  64. Text #2
  65. ID : 4
  66. Format : UTF-8
  67. Codec ID : S_TEXT/UTF8
  68. Codec ID/Info : UTF-8 Plain Text
  69. Duration : 1 h 29 min
  70. Bit rate : 64 b/s
  71. Count of elements : 1454
  72. Stream size : 42.4 KiB (0%)
  73. Title : English [SDH]
  74. Language : English
  75. Default : No
  76. Forced : No

  77. Text #3
  78. ID : 5
  79. Format : UTF-8
  80. Codec ID : S_TEXT/UTF8
  81. Codec ID/Info : UTF-8 Plain Text
  82. Duration : 1 h 27 min
  83. Bit rate : 55 b/s
  84. Count of elements : 1115
  85. Stream size : 35.7 KiB (0%)
  86. Title : Castilian [Full]
  87. Language : Spanish
  88. Default : No
  89. Forced : No

  90. Text #4
  91. ID : 6
  92. Format : UTF-8
  93. Codec ID : S_TEXT/UTF8
  94. Codec ID/Info : UTF-8 Plain Text
  95. Duration : 1 h 27 min
  96. Bit rate : 52 b/s
  97. Count of elements : 1128
  98. Stream size : 33.9 KiB (0%)
  99. Title : Spanish [Full]
  100. Language : Spanish
  101. Default : No
  102. Forced : No

  103. Text #5
  104. ID : 7
  105. Format : UTF-8
  106. Codec ID : S_TEXT/UTF8
  107. Codec ID/Info : UTF-8 Plain Text
  108. Duration : 1 h 27 min
  109. Bit rate : 54 b/s
  110. Count of elements : 1123
  111. Stream size : 35.4 KiB (0%)
  112. Title : French [Full]
  113. Language : French
  114. Default : No
  115. Forced : No

  116. Text #6
  117. ID : 8
  118. Format : UTF-8
  119. Codec ID : S_TEXT/UTF8
  120. Codec ID/Info : UTF-8 Plain Text
  121. Duration : 1 h 27 min
  122. Bit rate : 52 b/s
  123. Count of elements : 969
  124. Stream size : 33.7 KiB (0%)
  125. Title : German [Full]
  126. Language : German
  127. Default : No
  128. Forced : No

  129. Text #7
  130. ID : 9
  131. Format : UTF-8
  132. Codec ID : S_TEXT/UTF8
  133. Codec ID/Info : UTF-8 Plain Text
  134. Duration : 1 h 27 min
  135. Bit rate : 54 b/s
  136. Count of elements : 1120
  137. Stream size : 34.9 KiB (0%)
  138. Title : Italian [Full]
  139. Language : Italian
  140. Default : No
  141. Forced : No

  142. Text #8
  143. ID : 10
  144. Format : UTF-8
  145. Codec ID : S_TEXT/UTF8
  146. Codec ID/Info : UTF-8 Plain Text
  147. Duration : 1 h 27 min
  148. Bit rate : 54 b/s
  149. Count of elements : 1123
  150. Stream size : 35.2 KiB (0%)
  151. Title : Brazilian Portuguese [Full]
  152. Language : Portuguese
  153. Default : No
  154. Forced : No

  155. Text #9
  156. ID : 11
  157. Format : UTF-8
  158. Codec ID : S_TEXT/UTF8
  159. Codec ID/Info : UTF-8 Plain Text
  160. Duration : 1 h 27 min
  161. Bit rate : 51 b/s
  162. Count of elements : 1107
  163. Stream size : 32.9 KiB (0%)
  164. Title : Polish [Full]
  165. Language : Polish
  166. Default : No
  167. Forced : No

  168. Text #10
  169. ID : 12
  170. Format : UTF-8
  171. Codec ID : S_TEXT/UTF8
  172. Codec ID/Info : UTF-8 Plain Text
  173. Duration : 1 h 27 min
  174. Bit rate : 49 b/s
  175. Count of elements : 1127
  176. Stream size : 32.0 KiB (0%)
  177. Title : Turkish [Full]
  178. Language : Turkish
  179. Default : No
  180. Forced : No

  181. Text #11
  182. ID : 13
  183. Format : UTF-8
  184. Codec ID : S_TEXT/UTF8
  185. Codec ID/Info : UTF-8 Plain Text
  186. Duration : 1 h 27 min
  187. Bit rate : 47 b/s
  188. Count of elements : 1109
  189. Stream size : 30.7 KiB (0%)
  190. Title : Swedish [Full]
  191. Language : Swedish
  192. Default : No
  193. Forced : No

  194. Text #12
  195. ID : 14
  196. Format : UTF-8
  197. Codec ID : S_TEXT/UTF8
  198. Codec ID/Info : UTF-8 Plain Text
  199. Duration : 1 h 27 min
  200. Bit rate : 52 b/s
  201. Count of elements : 1107
  202. Stream size : 33.7 KiB (0%)
  203. Title : Danish [Full]
  204. Language : Danish
  205. Default : No
  206. Forced : No

  207. Text #13
  208. ID : 15
  209. Format : UTF-8
  210. Codec ID : S_TEXT/UTF8
  211. Codec ID/Info : UTF-8 Plain Text
  212. Duration : 1 h 27 min
  213. Bit rate : 48 b/s
  214. Count of elements : 1126
  215. Stream size : 31.3 KiB (0%)
  216. Title : Finnish [Full]
  217. Language : Finnish
  218. Default : No
  219. Forced : No

  220. Text #14
  221. ID : 16
  222. Format : UTF-8
  223. Codec ID : S_TEXT/UTF8
  224. Codec ID/Info : UTF-8 Plain Text
  225. Duration : 1 h 27 min
  226. Bit rate : 47 b/s
  227. Count of elements : 1125
  228. Stream size : 30.4 KiB (0%)
  229. Title : Dutch [Full]
  230. Language : Dutch
  231. Default : No
  232. Forced : No

  233. Text #15
  234. ID : 17
  235. Format : UTF-8
  236. Codec ID : S_TEXT/UTF8
  237. Codec ID/Info : UTF-8 Plain Text
  238. Duration : 1 h 27 min
  239. Bit rate : 52 b/s
  240. Count of elements : 1126
  241. Stream size : 33.6 KiB (0%)
  242. Title : Norwegian (Bokmål) [Full]
  243. Language : Norwegian Bokmal
  244. Default : No
  245. Forced : No

  246. Text #16
  247. ID : 18
  248. Format : UTF-8
  249. Codec ID : S_TEXT/UTF8
  250. Codec ID/Info : UTF-8 Plain Text
  251. Duration : 1 h 27 min
  252. Bit rate : 93 b/s
  253. Count of elements : 1129
  254. Stream size : 60.5 KiB (0%)
  255. Title : Russian [Full]
  256. Language : Russian
  257. Default : No
  258. Forced : No

  259. Text #17
  260. ID : 19
  261. Format : UTF-8
  262. Codec ID : S_TEXT/UTF8
  263. Codec ID/Info : UTF-8 Plain Text
  264. Duration : 1 h 27 min
  265. Bit rate : 81 b/s
  266. Count of elements : 1131
  267. Stream size : 52.3 KiB (0%)
  268. Title : Hebrew [Full]
  269. Language : Hebrew
  270. Default : No
  271. Forced : No

  272. Text #18
  273. ID : 20
  274. Format : UTF-8
  275. Codec ID : S_TEXT/UTF8
  276. Codec ID/Info : UTF-8 Plain Text
  277. Duration : 1 h 27 min
  278. Bit rate : 86 b/s
  279. Count of elements : 1130
  280. Stream size : 55.8 KiB (0%)
  281. Title : Arabic [Full]
  282. Language : Arabic
  283. Default : No
  284. Forced : No

  285. Text #19
  286. ID : 21
  287. Format : UTF-8
  288. Codec ID : S_TEXT/UTF8
  289. Codec ID/Info : UTF-8 Plain Text
  290. Duration : 1 h 27 min
  291. Bit rate : 143 b/s
  292. Count of elements : 1131
  293. Stream size : 92.4 KiB (0%)
  294. Title : Hindi [Full]
  295. Language : Hindi
  296. Default : No
  297. Forced : No

  298. Text #20
  299. ID : 22
  300. Format : UTF-8
  301. Codec ID : S_TEXT/UTF8
  302. Codec ID/Info : UTF-8 Plain Text
  303. Duration : 1 h 27 min
  304. Bit rate : 161 b/s
  305. Count of elements : 1131
  306. Stream size : 104 KiB (0%)
  307. Title : Tamil [Full]
  308. Language : Tamil
  309. Default : No
  310. Forced : No

  311. Text #21
  312. ID : 23
  313. Format : UTF-8
  314. Codec ID : S_TEXT/UTF8
  315. Codec ID/Info : UTF-8 Plain Text
  316. Duration : 1 h 27 min
  317. Bit rate : 149 b/s
  318. Count of elements : 1131
  319. Stream size : 96.3 KiB (0%)
  320. Title : Telugu [Full]
  321. Language : Telugu
  322. Default : No
  323. Forced : No

  324. Text #22
  325. ID : 24
  326. Format : UTF-8
  327. Codec ID : S_TEXT/UTF8
  328. Codec ID/Info : UTF-8 Plain Text
  329. Duration : 1 h 27 min
  330. Bit rate : 49 b/s
  331. Count of elements : 1126
  332. Stream size : 32.2 KiB (0%)
  333. Title : Indonesian [Full]
  334. Language : Indonesian
  335. Default : No
  336. Forced : No

  337. Text #23
  338. ID : 25
  339. Format : UTF-8
  340. Codec ID : S_TEXT/UTF8
  341. Codec ID/Info : UTF-8 Plain Text
  342. Duration : 1 h 27 min
  343. Bit rate : 125 b/s
  344. Count of elements : 1131
  345. Stream size : 81.1 KiB (0%)
  346. Title : Thai [Full]
  347. Language : Thai
  348. Default : No
  349. Forced : No

  350. Text #24
  351. ID : 26
  352. Format : UTF-8
  353. Codec ID : S_TEXT/UTF8
  354. Codec ID/Info : UTF-8 Plain Text
  355. Duration : 1 h 27 min
  356. Bit rate : 55 b/s
  357. Count of elements : 1131
  358. Stream size : 36.0 KiB (0%)
  359. Title : Korean [Full]
  360. Language : Korean
  361. Default : No
  362. Forced : No

  363. Text #25
  364. ID : 27
  365. Format : UTF-8
  366. Codec ID : S_TEXT/UTF8
  367. Codec ID/Info : UTF-8 Plain Text
  368. Duration : 1 h 27 min
  369. Bit rate : 53 b/s
  370. Count of elements : 1130
  371. Stream size : 34.2 KiB (0%)
  372. Title : Chinese (Simplified) [Full]
  373. Language : Chinese
  374. Default : No
  375. Forced : No

  376. Text #26
  377. ID : 28
  378. Format : UTF-8
  379. Codec ID : S_TEXT/UTF8
  380. Codec ID/Info : UTF-8 Plain Text
  381. Duration : 1 h 27 min
  382. Bit rate : 50 b/s
  383. Count of elements : 1131
  384. Stream size : 32.2 KiB (0%)
  385. Title : Chinese (Traditional) [Full]
  386. Language : Chinese
  387. Default : No
  388. Forced : No

  389. Text #27
  390. ID : 29
  391. Format : UTF-8
  392. Codec ID : S_TEXT/UTF8
  393. Codec ID/Info : UTF-8 Plain Text
  394. Duration : 1 h 28 min
  395. Bit rate : 49 b/s
  396. Count of elements : 1068
  397. Stream size : 32.4 KiB (0%)
  398. Title : Japanese [Full]
  399. Language : Japanese
  400. Default : No
  401. Forced : No

  402. Menu
  403. 00:00:00.000 : en:Amazon Original
  404. 00:00:05.000 : en:Ratings
  405. 00:00:15.000 : en:30 years of work wasted
  406. 00:04:58.000 : en:Opening Credits
  407. 00:06:04.000 : en:It\'s rough on the streets of Brooklyn
  408. 00:10:41.000 : en:Advice from a wise Safta
  409. 00:15:15.000 : en:An intruder in the home
  410. 00:17:55.000 : en:A new assignment
  411. 00:21:24.000 : en:Grandmother\'s memorial and sitting Shiva
  412. 00:23:15.000 : en:A debt is owed
  413. 00:27:32.000 : en:A glimpse into the past
  414. 00:31:46.000 : en:Plumbing issues
  415. 00:34:37.000 : en:FBI Headquarters
  416. 00:37:14.000 : en:Jonah needs answers
  417. 00:39:28.000 : en:Investigating Gretel\'s death
  418. 00:41:42.000 : en:Jonah visits the Hell\'s Devils
  419. 00:43:28.000 : en:A purposeful kill
  420. 00:44:15.000 : en:A visit to the Congressman
  421. 00:47:47.000 : en:Detective work
  422. 00:49:45.000 : en:A deadly game of chess
  423. 00:56:23.000 : en:Jonah stumbles across something
  424. 01:01:44.000 : en:An interview at nasA
  425. 01:05:11.000 : en:Jonah follows a hunch
  426. 01:08:27.000 : en:Only the dead know the end of war
  427. 01:14:53.000 : en:Millie searches for the truth
  428. 01:17:02.000 : en:Doing laundry
  429. 01:17:57.000 : en:This is not murder, this is mitzvah
  430. 01:24:54.000 : en:Someone to watch over you
  431. 01:26:26.000 : en:Title Sequence
  432. 01:26:33.000 : en:A meeting with The Colonel
  433. 01:29:01.000 : en:End Credits
復制代碼

獵殺納粹 / 捕獵 / 納粹捕獵者 / The Hunt/納粹獵人4k Hunters.2020.S01.2160p.AMZN.WEB-DL.x265.10bit.HDR.DDP5.1電視劇下載
納粹獵人4k Hunters.2020.S01.2160p.AMZN.WEB-DL.x265.10bit.HDR.DDP5.1【68.89 GB】
納粹獵人4k Hunters.2020.S01.2160p.AMZN.WEB-DL.x265.10bit.HDR.DDP5.1-SKGTV[rartv].torrent
(173.47 KB)
回復

使用道具 舉報

 

精彩評論1

正序瀏覽
跳轉到指定樓層
 
您需要登錄后才可以回帖 登錄 | 立即注冊

本版積分規則


0關注

67粉絲

180帖子

排行榜
社區廣告

關注微信公眾號第一時間推送精彩

官方微信

手機訪問

Hao4K影音

專注4k家庭影音,提供家庭影音社區,家庭影音器材庫,影音問答平臺,影音商城,服務千萬家庭影音用戶。

超级快三邀请码本站內容部分由用戶自主分享和轉載自互聯網,轉載目的在于傳遞更多信息,并不代表本網贊同其觀點和對其真實性負責。

如有侵權、違反國家法律政策行為,請聯系我們,我們會第一時間及時清除和處理!

超级快三邀请码舉報反饋郵箱:admin@hao4k.cn

Copyright   ©2019-2020  Hao4K影音     ( )|網站地圖